<?xml version="1.0" standalone="no"?>
<!DOCTYPE svg PUBLIC "-//W3C//DTD SVG 1.1//EN" "http://www.w3.org/Graphics/SVG/1.1/DTD/svg11.dtd" >
<svg xmlns="http://www.w3.org/2000/svg">
<metadata>Generated by IcoMoon</metadata>
<defs>
<font id="icomoon" horiz-adv-x="1024">
<font-face units-per-em="1024" ascent="960" descent="-64" />
<missing-glyph horiz-adv-x="1024" />
<glyph unicode="&#x20;" horiz-adv-x="512" d="" />
<glyph unicode="&#xe900;" glyph-name="caret-double-right" d="M523.2 64c-9.472-0.004-18.731 2.807-26.611 8.081-7.876 5.274-14.016 12.774-17.643 21.547s-4.574 18.428-2.722 27.742c1.847 9.314 6.413 17.869 13.111 24.58l244.881 245.466c7.411 7.433 13.291 16.252 17.306 25.958 4.011 9.707 6.076 20.113 6.076 30.618 0 10.509-2.065 20.911-6.076 30.622-4.015 9.707-9.894 18.526-17.306 25.954l-244.881 245.467c-4.446 4.459-7.974 9.751-10.381 15.577s-3.648 12.069-3.648 18.374c0 12.734 5.047 24.947 14.029 33.952s21.163 14.063 33.865 14.063c6.289 0 12.518-1.242 18.33-3.655s11.089-5.95 15.539-10.408l244.847-245.499c32.922-33.005 51.418-77.769 51.418-124.446 0-46.673-18.496-91.439-51.418-124.446l-244.847-245.5c-4.45-4.454-9.728-7.987-15.539-10.398s-12.041-3.652-18.33-3.648zM218.535 64c-9.47 0-18.726 2.82-26.599 8.094-7.872 5.278-14.007 12.774-17.629 21.547s-4.567 18.428-2.717 27.738c1.85 9.31 6.413 17.86 13.111 24.572l289.983 290.714c1.489 1.489 2.667 3.251 3.469 5.197 0.806 1.946 1.22 4.028 1.22 6.131s-0.414 4.19-1.22 6.131c-0.802 1.946-1.98 3.712-3.469 5.197l-289.983 290.715c-8.982 9-14.030 21.209-14.033 33.94s5.039 24.942 14.016 33.946c8.977 9.004 21.155 14.065 33.855 14.068s24.879-5.051 33.862-14.051l290.016-290.748c20.89-21.030 32.614-49.502 32.614-79.181s-11.725-58.15-32.614-79.181l-290.016-290.782c-4.448-4.454-9.728-7.987-15.539-10.398s-12.038-3.652-18.327-3.648z" />
<glyph unicode="&#xe901;" glyph-name="all" d="M85.852 424.905c2.025-31.151 5.432-55.782 14.019-87.561 2.329-8.619 9.881-14.4 18.813-14.4h119.715c11.621 0 20.582 9.937 19.382 21.491-7.068 68.083-7.826 138.893-2.196 207.568 0.934 11.412-7.967 21.072-19.421 21.072h-117.479c-8.93 0-16.483-5.783-18.813-14.403-5.793-21.452-9.975-43.562-12.301-66.184-2.092-20.301-2.326-33.485-2.216-53.53l0.497-14.054zM268.396 651.476c7.876 44.132 18.445 86.377 31.471 125.824 5.823 17.636-14.282 32.69-29.571 22.142-50.999-35.18-94.021-81.163-125.689-134.614-7.717-13.024 1.626-29.412 16.767-29.412h87.838c9.527 0 17.51 6.684 19.183 16.061zM690.897 658.685c-14.443 72.875-36.783 139.279-65.911 194.224-2.705 5.104-7.010 8.451-12.629 9.812-65.788 15.934-134.946 15.921-200.69 0-5.617-1.361-9.923-4.706-12.631-9.812-29.124-54.947-51.464-121.35-65.908-194.224-2.4-12.108 6.769-23.27 19.115-23.27h319.541c12.348 0 21.517 11.162 19.115 23.27zM774.81 635.415h87.842c15.138 0 24.482 16.387 16.768 29.411-31.671 53.46-74.697 99.456-125.7 134.628-15.287 10.545-35.392-4.509-29.568-22.144 13.026-39.45 23.595-81.699 31.475-125.836 1.673-9.375 9.66-16.059 19.183-16.059zM785.626 322.944h119.718c8.93 0 16.482 5.777 18.812 14.4 5.794 21.44 9.975 43.554 12.297 66.185 2.27 22.178 2.214 32.333 2.214 54.383 0 8.836-1.429 26.965-2.214 34.577-2.325 22.622-6.507 44.732-12.301 66.184-2.33 8.62-9.882 14.403-18.812 14.403h-117.478c-11.452 0-20.356-9.66-19.422-21.072 5.632-68.68 4.873-139.481-2.193-207.568-1.203-11.558 7.761-21.491 19.379-21.491zM751.1 245.039c-9.323-45.402-22.037-90.825-38.217-133.188-6.69-17.519 12.924-33.472 28.719-23.351 56.329 36.087 103.637 85.047 137.805 142.69 7.718 13.026-1.626 29.414-16.768 29.414h-92.45c-9.353 0-17.207-6.409-19.089-15.565zM311.136 111.863c-16.179 42.364-28.89 87.774-38.211 133.175-1.88 9.156-9.738 15.565-19.087 15.565h-92.452c-15.142 0-24.483-16.393-16.765-29.414 34.162-57.638 81.473-106.586 137.797-142.682 15.793-10.116 35.41 5.833 28.718 23.356zM666.342 260.604h-308.66c-12.577 0-21.8-11.571-18.996-23.825 17.527-76.604 43.916-144.96 77.519-198.537 2.958-4.715 7.259-7.676 12.722-8.759 54.848-10.863 111.27-10.871 166.17 0 5.461 1.084 9.762 4.045 12.719 8.759 33.604 53.577 59.994 121.92 77.521 198.537 2.807 12.254-6.417 23.825-18.995 23.825zM314.22 460.501c0-40.879 2.407-81.203 6.919-120.311 1.14-9.877 9.41-17.246 19.357-17.246h343.032c9.95 0 18.219 7.369 19.358 17.246 8.196 71.014 9.139 143.599 2.675 215.155-0.909 10.073-9.289 17.729-19.405 17.729h-348.288c-10.118 0-18.497-7.656-19.408-17.729-2.804-31.065-4.241-62.788-4.241-94.843z" />
<glyph unicode="&#xe902;" glyph-name="all-1" d="M384 864h-192c-53.019 0-96-42.981-96-96v-192c0-53.018 42.981-96 96-96h192c53.018 0 96 42.982 96 96v192c0 53.019-42.982 96-96 96zM832 864h-192c-53.018 0-96-42.981-96-96v-192c0-53.018 42.982-96 96-96h192c53.018 0 96 42.982 96 96v192c0 53.019-42.982 96-96 96zM384 416h-192c-53.019 0-96-42.982-96-96v-192c0-53.018 42.981-96 96-96h192c53.018 0 96 42.982 96 96v192c0 53.018-42.982 96-96 96zM736 32c106.039 0 192 85.961 192 192s-85.961 192-192 192c-106.039 0-192-85.961-192-192s85.961-192 192-192z" />
<glyph unicode="&#xe903;" glyph-name="arrow-down" d="M247.292 415.266c-8.417-8.431-12.625-19.494-12.625-30.549s4.207-22.118 12.625-30.545l234.24-234.85c16.823-16.875 44.113-16.875 60.937 0l234.24 234.85c16.832 16.853 16.832 44.237 0 61.094-16.823 16.875-44.113 16.875-60.937 0l-164.151-164.574v498.484c0 22.179-17.741 40.157-39.62 40.157s-39.62-17.978-39.62-40.157v-498.484l-164.152 164.574c-16.824 16.875-44.114 16.875-60.935 0z" />
<glyph unicode="&#xe904;" glyph-name="arrow-left" d="M479.266 712.708c-8.431 8.417-19.494 12.625-30.549 12.625s-22.119-4.207-30.545-12.625l-234.848-234.24c-16.875-16.823-16.875-44.113 0-60.937l234.848-234.24c16.854-16.832 44.237-16.832 61.095 0 16.875 16.823 16.875 44.113 0 60.937l-164.573 164.151h498.482c22.178 0 40.158 17.741 40.158 39.62s-17.98 39.62-40.158 39.62h-498.482l164.573 164.152c16.875 16.824 16.875 44.114 0 60.935z" />
<glyph unicode="&#xe905;" glyph-name="arrow-right" d="M544.734 183.292c8.431-8.418 19.494-12.625 30.549-12.625s22.118 4.207 30.545 12.625l234.85 234.24c16.875 16.823 16.875 44.113 0 60.937l-234.85 234.24c-16.853 16.833-44.237 16.833-61.094 0-16.875-16.823-16.875-44.113 0-60.935l164.574-164.154h-498.484c-22.179 0-40.157-17.741-40.157-39.62s17.978-39.62 40.157-39.62h498.484l-164.574-164.151c-16.875-16.823-16.875-44.113 0-60.937z" />
<glyph unicode="&#xe906;" glyph-name="arrows-clockwise" d="M896 767.994v-192c0-8.487-3.371-16.626-9.374-22.627-5.999-6.001-14.14-9.373-22.626-9.373h-192c-6.332-0.005-12.523 1.869-17.792 5.385-5.265 3.516-9.374 8.515-11.797 14.366s-3.055 12.288-1.818 18.499c1.233 6.211 4.288 11.915 8.768 16.39l73.237 73.36c-58.914 56.451-137.284 88.087-218.88 88.36h-1.796c-83.612 0.164-163.925-32.599-223.562-91.2-6.111-5.705-14.212-8.791-22.57-8.6s-16.309 3.647-22.152 9.626c-5.843 5.979-9.114 14.007-9.114 22.368s3.273 16.388 9.117 22.367c71.335 69.697 166.988 108.906 266.716 109.332 99.733 0.425 195.716-37.967 267.644-107.052l73.442 73.44c4.476 4.453 10.176 7.481 16.371 8.701 6.199 1.221 12.617 0.581 18.453-1.84 5.833-2.421 10.82-6.514 14.332-11.764s5.389-11.422 5.402-17.738zM745.638 226.833c-59.273-57.89-138.692-90.539-221.547-91.068s-162.682 31.1-222.692 88.23l73.24 73.237c4.522 4.471 7.61 10.185 8.87 16.418 1.261 6.229 0.637 12.693-1.792 18.569s-6.553 10.897-11.846 14.417c-5.293 3.52-11.515 5.389-17.873 5.359h-192c-8.487 0-16.626-3.371-22.627-9.374-6.001-5.999-9.373-14.14-9.373-22.626v-192c-0.005-6.336 1.869-12.527 5.385-17.792 3.516-5.269 8.515-9.374 14.366-11.797s12.288-3.059 18.499-1.822c6.211 1.237 11.915 4.288 16.39 8.768l73.36 73.442c70.888-68.416 165.484-106.769 264-107.042h2.121c100.322-0.256 196.71 39.019 268.279 109.321 5.845 5.982 9.118 14.007 9.118 22.37 0 8.358-3.273 16.388-9.114 22.366-5.845 5.978-13.794 9.434-22.153 9.626s-16.461-2.897-22.571-8.602h-0.043z" />
<glyph unicode="&#xe907;" glyph-name="arrow-up" d="M776.708 480.734c8.418 8.431 12.625 19.494 12.625 30.549s-4.207 22.119-12.625 30.545l-234.24 234.848c-16.823 16.875-44.113 16.875-60.937 0l-234.24-234.848c-16.833-16.854-16.833-44.237 0-61.095 16.823-16.875 44.113-16.875 60.935 0l164.154 164.573v-498.482c0-22.178 17.741-40.158 39.62-40.158s39.62 17.98 39.62 40.158v498.482l164.151-164.573c16.823-16.875 44.113-16.875 60.937 0z" />
<glyph unicode="&#xe908;" glyph-name="arrow-up-right" d="M759.245 254.025c14.037 0.009 26.765 5.722 35.981 14.938 9.212 9.212 14.925 21.939 14.933 35.977l0.508 390.942c0.043 28.085-22.703 50.829-50.786 50.786l-390.943-0.507c-28.076-0.019-50.895-22.837-50.916-50.915-0.044-28.084 22.7-50.828 50.784-50.784l273.963 0.347-415.441-415.44c-18.484-18.483-18.684-48.252-0.448-66.487s48.002-18.035 66.486 0.448l415.442 415.441-0.35-273.963c-0.043-28.087 22.699-50.829 50.786-50.782z" />
<glyph unicode="&#xe909;" glyph-name="arrow-up-right-bold" d="M512 864c-82.278 0-162.706-24.398-231.117-70.109s-121.731-110.681-153.216-186.695c-31.486-76.013-39.724-159.657-23.673-240.352s55.671-154.82 113.85-213.001c58.179-58.18 132.303-97.801 213-113.852 80.695-16.051 164.339-7.812 240.354 23.676 76.011 31.484 140.983 84.804 186.692 153.216 45.713 68.412 70.11 148.838 70.11 231.117-0.115 110.294-43.981 216.038-121.971 294.028s-183.735 121.856-294.029 121.972zM672 384c0-8.486-3.371-16.627-9.374-22.626-5.999-6.003-14.14-9.374-22.626-9.374s-16.627 3.371-22.626 9.374c-6.003 5.999-9.374 14.14-9.374 22.626v114.761l-201.36-201.399c-2.973-2.974-6.503-5.333-10.387-6.942s-8.048-2.436-12.253-2.436c-4.204 0-8.368 0.828-12.253 2.436s-7.414 3.968-10.387 6.942c-2.973 2.974-5.332 6.502-6.941 10.385-1.609 3.887-2.437 8.051-2.437 12.254s0.828 8.367 2.437 12.254c1.609 3.883 3.968 7.411 6.941 10.385l201.4 201.361h-114.761c-8.486 0-16.627 3.372-22.627 9.373s-9.373 14.141-9.373 22.627c0 8.487 3.372 16.626 9.373 22.627s14.141 9.373 22.627 9.373h192c8.486 0 16.627-3.372 22.626-9.373 6.003-6.001 9.374-14.141 9.374-22.627v-192z" />
<glyph unicode="&#xe90a;" glyph-name="bank" d="M424.636 65.024c-11.584 0-22.694 4.604-30.886 12.796-8.192 8.188-12.794 19.298-12.794 30.886v305.758c0 11.584 4.602 22.694 12.794 30.882 8.192 8.192 19.302 12.796 30.886 12.796s22.694-4.604 30.886-12.796c8.192-8.188 12.796-19.298 12.796-30.882v-305.758c0-11.588-4.604-22.699-12.796-30.886-8.192-8.192-19.302-12.796-30.886-12.796zM249.917 65.024c-11.584 0-22.694 4.604-30.886 12.796-8.192 8.188-12.794 19.298-12.794 30.886v305.758c0 11.584 4.602 22.694 12.794 30.882 8.192 8.192 19.302 12.796 30.886 12.796s22.695-4.604 30.886-12.796c8.192-8.188 12.793-19.298 12.793-30.882v-305.758c0-11.588-4.602-22.699-12.793-30.886-8.192-8.192-19.302-12.796-30.886-12.796zM599.356 65.024c-11.584 0-22.694 4.604-30.886 12.796-8.192 8.188-12.796 19.298-12.796 30.886v305.758c0 11.584 4.604 22.694 12.796 30.882 8.192 8.192 19.302 12.796 30.886 12.796s22.694-4.604 30.886-12.796c8.192-8.188 12.791-19.298 12.791-30.882v-305.758c0-11.588-4.599-22.699-12.791-30.886-8.192-8.192-19.302-12.796-30.886-12.796zM774.076 65.024c-11.588 0-22.699 4.604-30.886 12.796-8.192 8.188-12.796 19.298-12.796 30.886v305.758c0 11.584 4.604 22.694 12.796 30.882 8.188 8.192 19.298 12.796 30.886 12.796 11.584 0 22.694-4.604 30.882-12.796 8.192-8.188 12.796-19.298 12.796-30.882v-305.758c0-11.588-4.604-22.699-12.796-30.886-8.188-8.192-19.298-12.796-30.882-12.796zM861.431 21.346h-696.689c-7.127-0.38-14.239 0.994-20.712 3.998-6.474 3.008-12.112 7.552-16.422 13.244-4.31 5.687-7.16 12.348-8.301 19.392s-0.538 14.263 1.756 21.022l15.288 43.678c3.039 9.041 8.954 16.841 16.841 22.204s17.313 7.996 26.838 7.501h664.369c9.523 0.495 18.948-2.138 26.837-7.501s13.803-13.163 16.841-22.204l15.287-43.678c2.236-6.613 2.854-13.67 1.801-20.574-1.054-6.899-3.75-13.453-7.855-19.098-4.109-5.649-9.51-10.227-15.753-13.359-6.242-3.127-13.141-4.715-20.126-4.625zM861.431 545.501h-696.689c-7.127 0.379-14.239-0.995-20.712-4.001s-12.112-7.552-16.422-13.24c-4.31-5.692-7.16-12.348-8.301-19.396-1.141-7.044-0.538-14.263 1.756-21.022l15.288-43.678c3.039-9.041 8.954-16.841 16.841-22.204s17.313-7.996 26.838-7.497h664.369c9.523-0.499 18.948 2.133 26.837 7.497s13.803 13.163 16.841 22.204l15.287 43.678c2.236 6.618 2.854 13.67 1.801 20.574s-3.75 13.453-7.855 19.102c-4.109 5.645-9.51 10.225-15.753 13.355s-13.141 4.716-20.126 4.628zM795.477 739.439l-196.122 111.82c-26.56 15.335-56.691 23.408-87.36 23.408s-60.8-8.073-87.36-23.408l-196.122-111.82c-20.014-11.453-36.652-27.984-48.233-47.924s-17.694-42.583-17.724-65.643v-36.691h698.873v36.691c-0.030 23.059-6.14 45.702-17.724 65.643-11.58 19.94-28.215 36.471-48.23 47.924zM511.996 665.62c-10.799 0-21.355 3.202-30.336 9.202-8.977 5.999-15.974 14.527-20.109 24.503-4.13 9.977-5.214 20.955-3.106 31.546s7.309 20.32 14.942 27.956c7.637 7.636 17.365 12.836 27.955 14.943 10.594 2.107 21.572 1.025 31.548-3.107s18.505-11.131 24.503-20.11c5.999-8.979 9.203-19.535 9.203-30.334 0-14.481-5.751-28.368-15.991-38.608s-24.128-15.992-38.609-15.992z" />
<glyph unicode="&#xe90b;" glyph-name="caret-down" d="M213.333 572.761c0 11.747 4.532 23.503 13.597 32.457 18.115 17.932 47.504 17.932 65.622 0l219.447-217.058 219.447 217.058c18.116 17.932 47.505 17.932 65.626 0 18.125-17.909 18.125-47.002 0-64.911l-252.262-249.525c-18.116-17.933-47.505-17.933-65.621 0l-252.259 249.525c-9.066 8.954-13.597 20.71-13.597 32.454z" />
<glyph unicode="&#xe90c;" glyph-name="caret-left" d="M636.762 746.667c11.746 0 23.501-4.532 32.457-13.597 17.933-18.115 17.933-47.504 0-65.622l-217.058-219.447 217.058-219.447c17.933-18.116 17.933-47.505 0-65.626-17.911-18.125-47.002-18.125-64.913 0l-249.524 252.262c-17.93 18.116-17.93 47.505 0 65.621l249.524 252.259c8.956 9.066 20.71 13.597 32.457 13.597z" />
<glyph unicode="&#xe90d;" glyph-name="caret-right" d="M387.239 149.333c-11.747 0-23.503 4.531-32.457 13.598-17.932 18.116-17.932 47.505 0 65.621l217.058 219.447-217.058 219.449c-17.932 18.117-17.932 47.506 0 65.622 17.909 18.128 47.002 18.128 64.911 0l249.525-252.26c17.933-18.116 17.933-47.505 0-65.621l-249.525-252.258c-8.954-9.067-20.71-13.598-32.454-13.598z" />
<glyph unicode="&#xe90e;" glyph-name="caret-up" d="M810.667 323.238c0-11.746-4.531-23.501-13.598-32.457-18.116-17.933-47.505-17.933-65.621 0l-219.447 217.058-219.449-217.058c-18.117-17.933-47.506-17.933-65.622 0-18.128 17.911-18.128 47.002 0 64.913l252.26 249.524c18.116 17.93 47.505 17.93 65.621 0l252.258-249.524c9.067-8.956 13.598-20.71 13.598-32.457z" />
<glyph unicode="&#xe90f;" glyph-name="casino" d="M512 864c-82.278 0-162.706-24.398-231.117-70.109s-121.731-110.681-153.217-186.695c-31.486-76.013-39.724-159.657-23.673-240.352s55.671-154.82 113.85-213.001c58.179-58.18 132.303-97.801 213-113.852 80.695-16.051 164.339-7.812 240.354 23.676 76.011 31.484 140.983 84.804 186.692 153.216 45.713 68.412 70.11 148.838 70.11 231.117-0.115 110.294-43.981 216.038-121.971 294.028s-183.735 121.856-294.029 121.972zM512 256c-37.973 0-75.093 11.26-106.67 32.358-31.574 21.099-56.183 51.085-70.715 86.165-14.532 35.085-18.334 73.69-10.926 110.933s25.695 71.456 52.547 98.307c26.851 26.852 61.064 45.138 98.307 52.546s75.849 3.606 110.933-10.926c35.081-14.532 65.067-39.141 86.165-70.715 21.099-31.576 32.358-68.696 32.358-106.67-0.051-50.906-20.297-99.712-56.294-135.706-35.994-35.998-84.8-56.243-135.706-56.294zM668.838 650.12c-36.164 28.269-79.3 46.236-124.838 52v96.4c71.014-6.397 138.385-34.306 193.118-80l-68.279-68.4zM480 701.92c-45.538-5.764-88.675-23.731-124.84-52l-68.28 68.48c54.735 45.694 122.106 73.603 193.12 80v-96.48zM309.88 604.84c-28.269-36.166-46.236-79.302-52-124.84h-96.4c6.397 71.014 34.306 138.385 80 193.12l68.4-68.28zM258.080 416c5.764-45.538 23.731-88.674 52-124.838l-68.48-68.279c-45.694 54.733-73.603 122.103-80 193.118h96.48zM355.16 245.879c36.187-28.198 79.319-46.093 124.84-51.802v-96.597c-71.014 6.396-138.385 34.304-193.12 80l68.28 68.399zM544 194.078c45.521 5.709 88.653 23.603 124.838 51.802l68.279-68.279c-54.733-45.696-122.103-73.604-193.118-80v96.478zM714.121 291.162c28.198 36.186 46.093 79.317 51.797 124.838h96.602c-6.396-71.014-34.304-138.385-80-193.118l-68.399 68.279zM765.918 480c-5.705 45.521-23.599 88.652-51.797 124.84l68.279 68.28c45.696-54.735 73.604-122.106 80-193.12h-96.482z" />
<glyph unicode="&#xe910;" glyph-name="check-bold" d="M905.515 787.332c-255.394-152.332-440.738-341.145-524.79-436.744l-200.903 150.306c-5.065 3.789-12.199 3.742-17.209-0.115l-72.128-55.522c-6.365-4.898-6.914-13.973-1.182-19.541l319.595-310.374c14.969-14.537 40.451-10.167 49.322 8.38 75.857 158.575 257.502 422.292 476.045 616.449 4.275 3.797 5.589 9.713 3.273 14.83l-11.93 26.338c-3.362 7.418-12.915 10.275-20.092 5.994z" />
<glyph unicode="&#xe911;" glyph-name="check-circle-fill" d="M512 864c-82.278 0-162.706-24.398-231.117-70.109s-121.731-110.681-153.216-186.695c-31.486-76.013-39.724-159.657-23.673-240.352s55.671-154.82 113.85-213.001c58.179-58.18 132.303-97.801 213-113.852 80.695-16.051 164.339-7.812 240.354 23.676 76.011 31.484 140.983 84.804 186.692 153.216 45.713 68.412 70.11 148.838 70.11 231.117-0.115 110.294-43.981 216.038-121.971 294.028s-183.735 121.856-294.029 121.972zM694.639 521.361l-224-224c-2.97-2.978-6.498-5.338-10.385-6.946-3.883-1.613-8.047-2.441-12.254-2.441s-8.371 0.828-12.254 2.441c-3.883 1.609-7.415 3.968-10.386 6.946l-96 96c-6.004 6.003-9.378 14.148-9.378 22.639s3.373 16.636 9.378 22.639c6.004 6.007 14.148 9.378 22.64 9.378s16.636-3.371 22.64-9.378l73.36-73.399 201.361 201.401c2.974 2.973 6.502 5.331 10.385 6.941 3.887 1.609 8.051 2.437 12.254 2.437 4.207 0 8.367-0.828 12.254-2.437 3.883-1.609 7.411-3.968 10.385-6.941s5.333-6.503 6.942-10.388c1.609-3.884 2.436-8.048 2.436-12.253s-0.828-8.368-2.436-12.254c-1.609-3.883-3.968-7.411-6.942-10.385z" />
<glyph unicode="&#xe912;" glyph-name="coins" d="M512 504.892c235.639 0 426.667 63.673 426.667 142.22s-191.027 142.222-426.667 142.222c-235.642 0-426.667-63.675-426.667-142.222s191.025-142.22 426.667-142.22zM840.683 465.591c-89.058-29.687-205.786-46.037-328.683-46.037s-239.625 16.35-328.684 46.037c-40.756 13.585-72.838 29.022-97.983 45.402v-60.147c0-37.99 44.378-73.707 124.969-100.565 80.585-26.863 187.73-41.66 301.698-41.66s221.111 14.793 301.7 41.655c80.585 26.863 124.966 62.579 124.966 100.57v60.147c-25.143-16.38-57.225-31.817-97.984-45.402zM840.683 269.325c-89.054-29.687-205.786-46.037-328.683-46.037s-239.627 16.35-328.684 46.037c-40.758 13.585-72.84 29.022-97.983 45.402v-65.839c0-78.545 191.025-142.221 426.667-142.221 235.644 0 426.667 63.676 426.667 142.221v65.835c-25.143-16.375-57.225-31.812-97.984-45.397z" />
<glyph unicode="&#xe913;" glyph-name="collapse" d="M85.333 448c0-201.131 0-301.7 62.484-364.181 62.484-62.485 163.050-62.485 364.183-62.485 201.131 0 301.7 0 364.181 62.485 62.485 62.481 62.485 163.051 62.485 364.181 0 201.133 0 301.699-62.485 364.183-62.481 62.484-163.051 62.484-364.181 62.484-201.133 0-301.699 0-364.183-62.484s-62.484-163.050-62.484-364.183zM276.039 212.041c-12.497 12.497-12.497 32.755 0 45.252l94.706 94.707h-50.745c-17.673 0-32 14.327-32 32s14.327 32 32 32h128c17.673 0 32-14.327 32-32v-128c0-17.673-14.327-32-32-32s-32 14.327-32 32v50.743l-94.706-94.703c-12.497-12.497-32.758-12.497-45.255 0zM704 480c17.673 0 32 14.327 32 32s-14.327 32-32 32h-50.743l94.703 94.706c12.497 12.497 12.497 32.758 0 45.255s-32.755 12.497-45.252 0l-94.707-94.706v50.745c0 17.673-14.327 32-32 32s-32-14.327-32-32v-128c0-17.673 14.327-32 32-32h128z" />
<glyph unicode="&#xe914;" glyph-name="crypto" d="M512 874.667c-235.65 0-426.667-191.017-426.667-426.667 0-235.648 191.017-426.667 426.667-426.667 235.635 0 426.667 191.019 426.667 426.667 0 235.65-191.019 426.667-426.667 426.667zM778.351 181.649c-71.151-71.151-165.734-110.315-266.351-110.315s-195.2 39.181-266.35 110.315c-71.15 71.151-110.316 165.734-110.316 266.351s39.183 195.2 110.316 266.35c71.15 71.15 165.734 110.316 266.35 110.316s195.2-39.183 266.351-110.316c71.151-71.15 110.315-165.734 110.315-266.35s-39.181-195.2-110.315-266.351zM667.601 405.483c-4.352 10.799-11.136 20.002-20.352 27.635-9.216 7.616-21.099 13.018-35.665 16.201 17.084 7.031 29.717 17.365 37.918 31.014 8.196 13.649 12.297 29.086 12.297 46.336 0 33.481-12.898 58.681-38.682 75.598-16.282 10.684-36.617 17.967-60.966 21.917h2.598v65.483h-40.282v-62.15c-2.999 0.084-6.033 0.117-9.118 0.117h-22.033v62.033h-40.282v-62.033h-103.201v-51.733l37.917-8.033v-246.382l-37.917-8.034v-51.486h103.201v-55.616h40.282v55.616h31.151v-55.616h40.282v57.203c30.716 3.315 55.219 11.9 73.434 25.796 23.953 18.253 35.917 45.286 35.917 81.118 0 12.553-2.185 24.235-6.532 35.034l0.034-0.017zM475.968 560.317h39.433c19.584 0 34.202-3.483 43.831-10.417 9.634-6.95 14.434-18.051 14.434-33.283 0-13.901-5.15-24.149-15.45-30.767s-25.835-9.916-46.583-9.916h-35.665v84.383zM573.282 339.298c-8.781-6.865-21.901-10.3-39.3-10.3h-58.014v88.67h62.281c11.383 0 20.599-1.719 27.635-5.15 7.031-3.435 12.215-8.636 15.565-15.569 3.354-6.95 5.018-15.701 5.018-26.249 0-14.067-4.399-24.533-13.184-31.403z" />
<glyph unicode="&#xe915;" glyph-name="currency-circle-dollar" d="M512 874.667c-235.65 0-426.667-191.017-426.667-426.667 0-235.648 191.017-426.667 426.667-426.667 235.635 0 426.667 191.019 426.667 426.667 0 235.65-191.019 426.667-426.667 426.667zM486.268 514.466c2.53-5.7 6.967-10.901 13.265-15.633 6.302-4.732 14.985-9.549 26.018-14.451 26.965-11.733 49.297-23.215 66.999-34.415 17.681-11.217 30.865-24.051 39.548-38.498 8.67-14.451 13.001-32.452 13.001-54.003 0-30.298-9.634-54.733-28.898-73.297-19.268-18.569-45.099-29.517-77.517-32.853v-32.183c0-11.678-9.468-21.15-21.15-21.15s-21.15 9.472-21.15 21.15v31.667c-22.95 2.283-43.452 8.316-61.483 18.133-18.051 9.801-32.185 23.684-42.435 41.651-10.25 17.95-15.2 40.252-14.85 66.867l0.533 1.314h90.117c0-14.182 2.099-25.715 6.302-34.547 4.198-8.849 9.98-15.334 17.331-19.452s15.851-6.165 25.485-6.165c7.881 0 14.447 1.617 19.699 4.868 5.248 3.23 9.199 7.748 11.814 13.53 2.637 5.786 3.934 12.433 3.934 19.968 0 8.934-1.365 16.465-4.066 22.601-2.718 6.131-7.181 11.601-13.397 16.418s-14.767 9.583-25.617 14.315c-27.337 10.85-49.783 21.717-67.401 32.585-17.601 10.85-30.618 23.548-39.018 38.097-8.4 14.537-12.617 32.751-12.617 54.652 0 29.766 10.067 54.25 30.217 73.433 20.134 19.183 47.035 30.35 80.665 33.5v34.417c0 11.607 9.412 21.017 21.018 21.017 11.61 0 21.018-9.41 21.018-21.017v-35.733c31.535-4.733 56.533-17.7 75.017-38.883 18.483-21.2 27.452-48.267 26.935-81.185l0.781-2.099h-91.166c0 18.734-3.55 32.617-10.633 41.651-7.1 9.017-16.333 13.533-27.716 13.533s-20.403-3.683-26.018-11.033c-5.598-7.35-8.401-16.9-8.401-28.633 0-7.718 1.267-14.417 3.819-20.1l0.017-0.034z" />
<glyph unicode="&#xe916;" glyph-name="default" d="M512 96c-194.404 0-352 157.598-352 352 0 194.404 157.596 352 352 352 194.402 0 352-157.596 352-352 0-194.402-157.598-352-352-352zM512 32c229.751 0 416 186.249 416 416s-186.249 416-416 416c-229.751 0-416-186.249-416-416s186.249-416 416-416z" />
<glyph unicode="&#xe917;" glyph-name="digital-wallet" d="M800 352h96v-128h-96c-35.294 0-64 28.706-64 64s28.706 64 64 64zM896 176v-112c0-35.362-28.638-64-64-64h-640c-35.36 0-64 28.638-64 64v448c0 35.36 28.64 64 64 64h640c35.362 0 64-28.64 64-64v-112h-96c-61.76 0-112-50.24-112-112s50.24-112 112-112h96zM432 816c0 44.192 35.81 80 80 80 44.194 0 80-35.808 80-80 0-32.8-19.776-60.896-48-73.248v-118.752h-64v118.752c-28.224 12.352-48 40.448-48 73.248zM176 784c0 44.192 35.808 80 80 80 50.432 0 89.824-46.72 77.696-98.272l69.504-52.128c8.064-6.048 12.8-15.52 12.8-25.6v-64h-64v48l-56.832 42.656c-54.464-30.848-119.168 9.248-119.168 69.344zM848 784c0-60.352-64.896-100.064-119.168-69.376l-56.832-42.624v-48h-64v64c0 10.080 4.736 19.552 12.8 25.6l69.504 52.096c-12.126 51.616 27.298 98.304 77.696 98.304 44.19 0 80-35.808 80-80z" />
<glyph unicode="&#xe918;" glyph-name="event" d="M204.151 478.763h41.827v-168.93c-24.327-8.256-43.35-28.151-50.477-53.056h151.148c-7.127 24.905-26.15 44.8-50.477 53.056v108.826c53.839-54.234 137.487-87.889 209.137-87.889 71.667 0 155.311 33.668 209.139 87.889v-108.826c-24.329-8.256-43.349-28.151-50.479-53.056h151.147c-7.125 24.905-26.15 44.8-50.475 53.056v168.93h41.826c13.854 0 25.097 11.302 25.097 25.225 0 13.926-11.243 25.229-25.097 25.229h-10.991c48.725 49.557 13.931 134.536-55.932 134.536-69.867 0-104.657-84.981-55.932-134.536h-10.995c-13.85 0-25.097-11.302-25.097-25.229 0-13.922 11.247-25.225 25.097-25.225h26.722c-14.942-21.999-37.295-42.398-65.451-59.349-80.721-48.597-169.916-52.527-257.158 0-28.158 16.951-50.511 37.35-65.452 59.349h26.72c13.853 0 25.097 11.302 25.097 25.225 0 13.926-11.243 25.229-25.097 25.229h-10.992c48.726 49.557 13.93 134.536-55.932 134.536-69.868 0-104.655-84.981-55.932-134.536h-10.992c-13.853 0-25.097-11.302-25.097-25.229 0-13.922 11.243-25.225 25.097-25.225zM932.203 63.428c-130.931 146.223-108.058 121.182-129.079 142.878-0.137 0.017-598.972 0.017-598.972 0.017-16.451-23.010 3.246 2.415-113.286-144.004-13.124-16.491-1.42-40.986 19.592-40.986h803.091c21.679 0 33.148 25.903 18.654 42.095zM426.106 697.454l-11.612-68.11c-3.527-20.578 18.005-36.312 36.407-26.605l60.851 32.171c66.995-35.41 64.277-35.064 72.529-35.064 15.484 0 27.396 14.019 24.742 29.498l-11.627 68.11 49.242 48.232c14.865 14.579 6.66 39.998-13.905 43.035l-68.045 9.939-30.434 61.955c-9.139 18.697-35.776 18.775-45.005 0l-30.417-61.955-68.047-9.939c-20.553-3.036-28.783-28.447-13.903-43.035l49.223-48.232z" />
<glyph unicode="&#xe919;" glyph-name="eye" d="M321.675 448.009c0 100.873 85.325 182.955 190.338 182.955 104.905 0 190.229-82.080 190.229-182.955 0-100.894-85.325-182.938-190.229-182.938-105.015 0-190.338 82.044-190.338 182.938zM90.256 465.463c-6.563-11.413-6.563-23.492 0-34.918 85.213-147.14 246.808-259.878 421.757-259.878 174.835 0 336.435 112.738 421.645 259.878 6.677 11.426 6.677 23.505 0 34.918-85.21 147.142-246.805 259.87-421.645 259.87-174.949 0-336.544-112.728-421.757-259.87zM512.013 571.005c-70.613 0-127.987-55.17-127.987-122.997 0-67.823 57.373-122.991 127.987-122.991 70.502 0 127.876 55.168 127.876 122.991 0 67.827-57.374 122.997-127.876 122.997z" />
<glyph unicode="&#xe91a;" glyph-name="eye-slash" d="M239.098 758.198l-0.117 0.14c-2.955 3.081-6.458 5.52-10.309 7.178s-7.976 2.502-12.137 2.484c-4.162-0.018-8.279-0.897-12.118-2.588s-7.322-4.16-10.253-7.266c-2.93-3.107-5.251-6.789-6.828-10.838s-2.38-8.384-2.362-12.759c0.034-8.836 3.406-17.295 9.373-23.517l47.784-50.234c-57.949-41.722-107.829-94.641-146.986-155.94-6.394-9.924-9.812-21.636-9.812-33.621 0-11.989 3.418-23.701 9.812-33.626 99.952-155.516 258.405-246.626 416.859-245.491 51.324-0.192 102.306 8.789 150.767 26.564l77.35-81.314c5.961-6.063 13.948-9.429 22.238-9.37 8.294 0.060 16.235 3.537 22.114 9.685 5.884 6.148 9.233 14.477 9.335 23.194s-3.051 17.131-8.785 23.428l-545.926 573.891zM512.004 282.547c-30.020 0.013-59.563 7.936-85.92 23.040s-48.695 36.915-64.968 63.437c-16.274 26.517-25.966 56.905-28.19 88.375-2.224 31.475 3.090 63.031 15.457 91.788l49.917-52.474c-4.020-19.921-3.244-40.58 2.26-60.1 5.504-19.524 15.561-37.291 29.259-51.686 13.692-14.4 30.596-24.973 49.165-30.758s38.221-6.601 57.169-2.377l49.916-52.476c-23.266-11.089-48.521-16.806-74.065-16.768zM928.862 504.947c-99.955 155.605-258.406 246.715-416.858 245.577-51.328 0.195-102.31-8.787-150.771-26.562l76.667-80.598c33.267 15.827 70.336 20.62 106.261 13.739s69.005-25.108 94.822-52.253c25.822-27.145 43.162-61.917 49.707-99.685 6.545-37.764 1.988-76.732-13.069-111.706l106.236-111.68c57.958 41.715 107.844 94.635 147.004 155.938 6.387 9.924 9.805 21.632 9.805 33.613 0 11.985-3.418 23.693-9.805 33.617zM512.004 593.516c-8.119-0.001-16.213-0.894-24.154-2.663l137.856-144.901c3.593 17.805 3.358 36.224-0.687 53.922-4.045 17.694-11.797 34.219-22.694 48.361s-24.661 25.547-40.29 33.381c-15.625 7.834-32.721 11.9-50.031 11.9z" />
<glyph unicode="&#xe91b;" glyph-name="facebook" d="M832 874.667h-640c-58.827 0-106.667-47.84-106.667-106.667v-640c0-58.825 47.84-106.667 106.667-106.667h320v293.333h-106.667v133.333h106.667v106.667c0 88.373 71.629 160 160 160h106.667v-133.333h-53.333c-29.44 0-53.333 2.773-53.333-26.667v-106.667h133.333l-53.333-133.333h-80v-293.333h160c58.825 0 106.667 47.842 106.667 106.667v640c0 58.827-47.842 106.667-106.667 106.667z" />
<glyph unicode="&#xe91c;" glyph-name="filter" d="M654.221 163.554c-7.535 0-15.074 2.419-21.333 7.113l-142.221 106.667c-8.96 6.686-14.221 17.246-14.221 28.446v127.501l-209.033 208.995c-25.707 25.743-39.858 59.911-39.858 96.249 0 75.057 61.085 136.142 136.107 136.142h438.898c75.021 0 136.107-61.049 136.107-136.142 0-36.338-14.153-70.507-39.859-96.249l-209.028-209.030v-234.172c0-13.474-7.612-25.775-19.665-31.821-5.047-2.526-10.487-3.699-15.893-3.699zM448 220.446c-26.702 19.981-42.667 51.874-42.667 85.333v98.027l-188.195 188.194c-33.813 33.849-53.511 77.475-58.525 124.338-43.342-22.791-73.28-67.733-73.28-120.036 0-36.337 14.151-70.508 39.858-96.249l209.031-208.994v-127.505c0-11.2 5.263-21.722 14.223-28.442l142.222-106.667c6.259-4.693 13.794-7.113 21.333-7.113 5.406 0 10.88 1.246 15.893 3.733 12.053 6.007 19.661 18.347 19.661 31.821v88.892l-99.554 74.667z" />
<glyph unicode="&#xe91d;" glyph-name="fire" d="M631.885 212.979c0 45.615-27.853 72.141-81.25 118.895-12.066 10.667-25.097 21.973-38.541 34.56-15.339-14.541-29.922-27.341-43.298-39.108-53.292-46.438-76.629-69.158-76.629-114.347 0-32.789 12.628-64.235 35.106-87.42s52.962-36.207 84.753-36.207c31.787 0 62.272 13.022 84.753 36.207 22.477 23.185 35.106 54.63 35.106 87.42zM663.974 731.2c-41.365 36.231-84.109 73.671-127.339 118.222l-24.61 25.245-24.132-25.28c-77.698-80.427-114.445-203.947-130.371-278.045-12.221 19.518-21.29 40.952-26.854 63.467l-14.72 58.205-42.503-41.138c-74.425-72.107-124.098-143.609-124.098-258.096-0.716-82.615 25.356-163.106 74.072-228.689 48.716-65.579 117.283-112.486 194.807-133.269 19.478-5.090 39.313-8.597 59.324-10.487-43.388 8.341-82.589 32.060-110.82 67.055s-43.719 79.066-43.784 124.591c0 80 46.778 120.887 100.933 168.602 19.337 16.96 41.366 36.198 63.599 59.273l24.546 25.173 24.405-25.173c19.857-20.48 39.71-37.833 58.91-54.686 54.327-47.535 105.621-92.442 105.621-173.188-0.055-45.346-15.415-89.259-43.447-124.19-28.028-34.935-66.978-58.709-110.157-67.243 89.647 8.973 172.838 52.062 233.353 120.866 60.51 68.809 94.007 158.396 93.956 251.294 0 152.96-97.66 238.471-210.692 337.493z" />
<glyph unicode="&#xe91e;" glyph-name="game-center" d="M304 480c-97.201 0-176 78.798-176 176s78.798 176 176 176c97.201 0 176-78.798 176-176-0.107-97.159-78.841-175.894-176-176zM304 736c-44.183 0-80-35.817-80-80s35.817-80 80-80c44.183 0 80 35.817 80 80s-35.816 80-80 80zM720 480c-97.199 0-176 78.798-176 175.999s78.797 176.001 176 176.001c97.203 0 176-78.798 176-176-0.107-97.159-78.839-175.894-176-176zM720 736c-44.181 0-80-35.817-80-80s35.819-80 80-80c44.181 0 80 35.816 80 80s-35.819 80-80 80zM304 64c-97.201 0-176 78.797-176 176 0 97.199 78.798 176 176 176s176-78.801 176-176c-0.107-97.161-78.841-175.893-176-176zM304 320c-44.183 0-80-35.814-80-80s35.817-80 80-80c44.183 0 80 35.819 80 80s-35.816 80-80 80zM720 64c-97.199 0-176 78.797-176 176 0 97.199 78.801 176 176 176 97.203 0 176-78.797 176-176-0.107-97.161-78.839-175.893-176-176zM720 320c-44.181 0-80-35.814-80-80 0-44.181 35.814-80 80-80s80 35.819 80 80c0 44.181-35.819 80-80 80z" />
<glyph unicode="&#xe91f;" glyph-name="hand-deposit" d="M768 832h-512c-93.867 0-170.667-76.8-170.667-170.667 0-72.533 42.667-132.267 106.667-157.867v157.867c0 17.067 8.533 34.133 17.067 46.933s29.867 17.067 46.933 17.067h512c17.067 0 34.133-8.533 46.933-17.067s17.067-29.867 17.067-46.933v-157.867c64 25.6 106.667 85.333 106.667 157.867 0 93.867-76.8 170.667-170.667 170.667zM768 149.333v512h-512v-512c0-46.933 38.4-85.333 85.333-85.333h341.333c46.933 0 85.333 38.4 85.333 85.333zM477.867 430.933l-29.867-29.867c-12.8-12.8-34.133-12.8-46.933 0s-12.8 34.133 0 46.933l55.467 55.467c29.867 29.867 76.8 29.867 106.667 0l55.467-55.467c12.8-12.8 12.8-34.133 0-46.933s-34.133-12.8-46.933 0l-29.867 29.867v-179.2c0-17.067-12.8-34.133-34.133-34.133s-34.133 12.8-34.133 34.133v179.2h4.267z" />
<glyph unicode="&#xe920;" glyph-name="hand-withdraw" d="M256 832h512c93.867 0 170.667-76.8 170.667-170.667 0-72.533-42.667-132.267-106.667-157.867v157.867c0 17.067-8.533 34.133-17.067 46.933s-29.867 17.067-46.933 17.067h-512c-17.067 0-34.133-8.533-46.933-17.067s-17.067-29.867-17.067-46.933v-157.867c-64 25.6-106.667 85.333-106.667 157.867 0 93.867 76.8 170.667 170.667 170.667zM768 661.333h-512v-512c0-46.933 38.4-85.333 85.333-85.333h341.333c46.933 0 85.333 38.4 85.333 85.333v512zM448 341.333l29.867-29.867v179.2c0 17.067 12.8 34.133 34.133 34.133s34.133-12.8 34.133-34.133v-179.2l29.867 29.867c12.8 12.8 34.133 12.8 46.933 0s12.8-34.133 0-46.933l-55.467-55.467c-29.867-29.867-76.8-29.867-106.667 0l-55.467 55.467c-12.8 12.8-12.8 34.133 0 46.933s29.867 12.8 42.667 0z" />
<glyph unicode="&#xe921;" glyph-name="history" d="M938.667 448c0-113.161-44.954-221.683-124.966-301.7-80.017-80.013-188.54-124.966-301.7-124.966-113.159 0-221.683 44.954-301.699 124.966-80.015 80.017-124.968 188.54-124.968 301.7 0 8.081 3.211 15.834 8.926 21.551 5.715 5.713 13.467 8.926 21.55 8.926s15.834-3.213 21.55-8.926c5.716-5.717 8.926-13.47 8.926-21.551-0.122-81.617 27.020-160.934 77.119-225.37 50.098-64.431 120.282-110.285 199.412-130.278 79.131-19.998 162.672-12.988 237.364 19.908 74.692 32.9 136.256 89.805 174.921 161.681 38.669 71.876 52.215 154.611 38.498 235.068-13.717 80.454-53.914 154.024-114.21 209.030s-137.237 88.296-218.611 94.587c-81.374 6.291-162.519-14.779-230.553-59.864h18.918c8.083 0 15.834-3.211 21.55-8.926s8.926-13.467 8.926-21.55c0-8.083-3.211-15.834-8.926-21.55s-13.467-8.926-21.55-8.926h-91.429c-4.003-0.002-7.967 0.785-11.665 2.315s-7.059 3.776-9.89 6.606c-2.831 2.831-5.075 6.191-6.606 9.89s-2.318 7.663-2.316 11.665v91.428c0 8.083 3.211 15.835 8.926 21.55s13.467 8.926 21.55 8.926c8.083 0 15.834-3.211 21.55-8.926s8.926-13.467 8.926-21.55v-15.662c63.963 44.581 138.921 70.779 216.729 75.748 77.807 4.968 155.49-11.483 224.602-47.567 69.116-36.084 127.014-90.42 167.415-157.103 40.397-66.683 61.747-143.165 61.73-221.129zM786.287 448c0-54.251-16.090-107.281-46.225-152.384-30.14-45.107-72.977-80.265-123.098-101.022-50.121-20.762-105.267-26.193-158.477-15.612-53.204 10.586-102.077 36.71-140.437 75.068-38.359 38.362-64.483 87.232-75.066 140.437-10.583 53.21-5.152 108.356 15.608 158.477 20.76 50.119 55.916 92.957 101.022 123.096s98.134 46.225 152.385 46.225c72.721-0.079 142.438-29.003 193.86-80.424s80.346-121.14 80.427-193.862zM620.335 412.403l-77.858 51.908v136.069c0 8.083-3.213 15.835-8.926 21.55-5.717 5.715-13.47 8.926-21.551 8.926s-15.834-3.211-21.551-8.926c-5.713-5.715-8.926-13.467-8.926-21.55v-152.381c0-5.018 1.242-9.954 3.61-14.379s5.79-8.196 9.963-10.978l91.426-60.954c6.729-4.386 14.912-5.948 22.78-4.331 7.868 1.613 14.784 6.263 19.238 12.949 4.454 6.682 6.093 14.852 4.557 22.733-1.54 7.885-6.123 14.844-12.762 19.362z" />
<glyph unicode="&#xe922;" glyph-name="hourglass" d="M791.275 756.419v57.295h31.027c8.23 0 16.124 3.211 21.943 8.926s9.088 13.467 9.088 21.55c0 8.083-3.268 15.835-9.088 21.55s-13.713 8.926-21.943 8.926h-620.605c-8.23 0-16.122-3.211-21.942-8.926s-9.088-13.467-9.088-21.55c0-8.083 3.269-15.834 9.088-21.55s13.712-8.926 21.942-8.926h31.031v-57.295c-0.292-61.658 16.991-122.167 49.894-174.679s80.113-94.934 136.288-122.463l22.653-11.277-22.653-11.277c-79.311-38.793-139.773-106.833-168.184-189.257-0.131-0.909-0.131-1.835 0-2.743-11.821-33.843-17.901-69.363-17.997-105.143v-57.293h-31.031c-8.23 0-16.122-3.213-21.942-8.926-5.819-5.717-9.088-13.47-9.088-21.551 0-8.085 3.269-15.834 9.088-21.551 5.819-5.713 13.712-8.926 21.942-8.926h620.605c8.23 0 16.124 3.213 21.943 8.926 5.82 5.717 9.088 13.466 9.088 21.551 0 8.081-3.268 15.834-9.088 21.551-5.82 5.713-13.713 8.926-21.943 8.926h-31.027v57.293c-0.098 35.78-6.178 71.3-18.001 105.143 0.132 0.909 0.132 1.835 0 2.743-28.412 82.423-88.87 150.464-168.183 189.257l-22.652 11.277 22.652 11.277c56.175 27.529 103.386 69.952 136.29 122.463 32.9 52.512 50.185 113.021 49.894 174.679zM698.18 265.143h-372.362c26.585 50.59 68.857 91.575 120.71 117.026l64.542 30.477 64.542-30.477c52.544-25.135 95.501-66.15 122.569-117.026zM346.298 600.381c-33.137 45.553-51.129 100.054-51.51 156.038v57.295h434.424v-57.295c-0.111-55.885-17.771-110.377-50.577-156.038h-332.337z" />
<glyph unicode="&#xe923;" glyph-name="info" d="M512 874.667c-235.648 0-426.667-191.019-426.667-426.667s191.019-426.667 426.667-426.667c235.648 0 426.667 191.019 426.667 426.667s-191.019 426.667-426.667 426.667zM512 661.333c23.552 0 42.667-19.115 42.667-42.667s-19.115-42.667-42.667-42.667c-23.552 0-42.667 19.115-42.667 42.667s19.115 42.667 42.667 42.667zM469.333 533.334h42.667c26.923 0 46.635-24.278 41.344-50.688l-32-162.645h33.323c23.552 0 42.667-19.115 42.667-42.667s-19.115-42.667-42.667-42.667h-42.667c-50.475 0-85.888 43.819-75.989 93.355l25.301 122.624c-19.328 4.096-34.645 19.456-34.645 40.021 0 23.552 19.115 42.667 42.667 42.667z" />
<glyph unicode="&#xe924;" glyph-name="info-1" d="M200.691 831.562c85.363-9.646 199.743-35.426 282.147-92.036v-597.33c-82.403 56.61-196.784 82.389-282.147 92.036-42.693 4.821-77.551 40.486-77.551 84.471v438.045c0 43.986 34.858 79.637 77.551 74.813zM629.845 188.241c-31.552-12.412-61.815-27.588-88.683-46.046v597.33c82.402 56.611 196.783 82.39 282.146 92.036 42.697 4.824 77.551-30.827 77.551-74.813v-368.674c-23.817 10.406-50.121 16.179-77.773 16.179-107.379 0-194.428-87.053-194.428-194.432 0-7.296 0.401-14.494 1.186-21.581zM244.261 656.489c-15.917 2.465-30.819-8.44-33.284-24.358s8.44-30.819 24.358-33.284c47.782-7.4 100.545-19.632 149.489-38.559 15.023-5.81 31.911 1.659 37.72 16.682s-1.66 31.911-16.683 37.72c-53.888 20.839-110.94 33.952-161.6 41.798zM210.977 476.587c2.465 15.919 17.367 26.82 33.284 24.358 25.655-3.972 52.873-9.289 80.443-16.239 15.618-3.947 25.084-19.797 21.144-35.413-3.94-15.62-19.795-25.088-35.412-21.15-25.603 6.46-51.021 11.43-75.101 15.159-15.918 2.466-26.823 17.365-24.358 33.284zM784.201 238.989c16.107 0 29.167-13.060 29.167-29.167v-116.659c0-16.107-13.060-29.163-29.167-29.163s-29.163 13.056-29.163 29.163v116.659c0 16.107 13.056 29.167 29.163 29.167zM784.201 287.595c21.478 0 38.886 17.408 38.886 38.886s-17.408 38.886-38.886 38.886c-21.474 0-38.882-17.408-38.882-38.886s17.408-38.886 38.882-38.886z" />
<glyph unicode="&#xe925;" glyph-name="jackpot" d="M746.667 661.328h-554.667c-16.958-0.051-33.207-6.81-45.199-18.801s-18.75-28.241-18.801-45.199v-258.772c6.949 1.903 14.128 2.837 21.333 2.773h640c7.206 0.064 14.383-0.87 21.333-2.773v258.772c-0.051 16.958-6.81 33.207-18.803 45.199-11.989 11.991-28.237 18.75-45.197 18.801zM316.587 564.261c-16.62-25.277-30.224-52.415-40.533-80.852-9.598-26.231-16.391-53.406-20.267-81.067-0.72-5.090-3.252-9.749-7.133-13.12s-8.847-5.227-13.987-5.227c-1-0.030-2.001 0.043-2.987 0.213-5.601 0.794-10.658 3.776-14.058 8.299-3.401 4.518-4.866 10.206-4.075 15.808 4.334 30.562 11.841 60.591 22.4 89.6 7.097 19.494 15.581 38.46 25.387 56.745h-48c-5.658 0-11.084 2.247-15.085 6.248s-6.249 9.427-6.249 15.085c0 5.658 2.248 11.084 6.249 15.085s9.427 6.249 15.085 6.249h85.333c3.835-0.003 7.599-1.034 10.9-2.985s6.020-4.751 7.873-8.108c1.811-3.412 2.686-7.242 2.537-11.102s-1.32-7.611-3.39-10.871zM529.92 564.261c-16.619-25.277-30.225-52.415-40.533-80.852-9.596-26.231-16.393-53.406-20.267-81.067-0.721-5.090-3.251-9.749-7.134-13.12-3.878-3.371-8.845-5.227-13.986-5.227-0.998-0.030-2.001 0.043-2.987 0.213-5.602 0.794-10.658 3.776-14.059 8.299-3.401 4.518-4.866 10.206-4.075 15.808 4.335 30.562 11.84 60.591 22.4 89.6 7.095 19.494 15.582 38.46 25.387 56.745h-48c-5.658 0-11.084 2.247-15.085 6.248s-6.249 9.427-6.249 15.085c0 5.658 2.248 11.084 6.249 15.085s9.427 6.249 15.085 6.249h85.333c3.836-0.003 7.599-1.034 10.901-2.985s6.020-4.751 7.872-8.108c1.809-3.412 2.688-7.242 2.534-11.102-0.149-3.86-1.318-7.611-3.388-10.871zM743.253 564.261c-16.619-25.277-30.225-52.415-40.533-80.852-9.596-26.231-16.393-53.406-20.267-81.067-0.721-5.090-3.251-9.749-7.134-13.12-3.878-3.371-8.845-5.227-13.986-5.227-0.998-0.030-2.001 0.043-2.987 0.213-5.602 0.794-10.658 3.776-14.059 8.299-3.401 4.518-4.864 10.206-4.075 15.808 4.335 30.562 11.84 60.591 22.4 89.6 7.095 19.494 15.582 38.46 25.387 56.745h-48c-5.658 0-11.085 2.247-15.087 6.248-3.998 4.001-6.246 9.427-6.246 15.085s2.249 11.084 6.246 15.085c4.002 4.001 9.429 6.249 15.087 6.249h85.333c3.836-0.003 7.599-1.034 10.901-2.985s6.020-4.751 7.872-8.108c1.809-3.412 2.688-7.242 2.534-11.102-0.149-3.86-1.318-7.611-3.388-10.871zM638.72 786.128l-37.12-103.467h-265.387l-36.267 96.427c-1.458 4.095-1.67 8.531-0.606 12.746s3.353 8.020 6.579 10.934c3.284 2.823 7.348 4.579 11.654 5.037s8.649-0.407 12.452-2.477l68.053-36.48 52.693 94.933c1.903 3.391 4.702 6.197 8.085 8.114s7.228 2.872 11.119 2.763c3.887-0.11 7.671-1.28 10.94-3.386 3.273-2.105 5.905-5.065 7.616-8.558l45.013-93.013 74.667 42.24c3.793 2.124 8.141 3.039 12.467 2.623s8.422-2.143 11.738-4.95c3.319-2.807 5.7-6.56 6.827-10.758s0.943-8.638-0.525-12.729zM917.333 234.662h-85.333c-11.78 0-21.333-9.553-21.333-21.333v-85.333c0-11.785 9.553-21.333 21.333-21.333h85.333c11.78 0 21.333 9.549 21.333 21.333v85.333c0 11.78-9.553 21.333-21.333 21.333zM874.667 810.661c-16.973 0-33.254-6.743-45.257-18.745s-18.743-28.281-18.743-45.255v-42.667c0-16.974 6.741-33.253 18.743-45.255s28.284-18.745 45.257-18.745c16.973 0 33.254 6.743 45.257 18.745s18.743 28.281 18.743 45.255v42.667c0 16.974-6.741 33.252-18.743 45.255s-28.284 18.745-45.257 18.745zM874.667 191.996c-5.658 0-11.085 2.244-15.087 6.246-3.998 4.002-6.246 9.429-6.246 15.087v447.999c0 5.658 2.249 11.084 6.246 15.085 4.002 4.001 9.429 6.249 15.087 6.249s11.085-2.248 15.087-6.249c3.998-4.001 6.246-9.427 6.246-15.085v-447.999c0-5.658-2.249-11.085-6.246-15.087-4.002-4.002-9.429-6.246-15.087-6.246zM682.667 191.996h-426.667c-5.658 0-11.084-2.249-15.085-6.251-4.001-3.998-6.249-9.425-6.249-15.083s2.248-11.085 6.249-15.087c4.001-4.002 9.427-6.246 15.085-6.246h426.667c5.658 0 11.085 2.244 15.087 6.246 3.998 4.002 6.246 9.429 6.246 15.087s-2.249 11.085-6.246 15.083c-4.002 4.002-9.429 6.251-15.087 6.251zM789.333 319.996h-640c-16.974 0-33.253-6.746-45.255-18.748s-18.745-28.279-18.745-45.252v-170.667c0-16.977 6.743-33.254 18.745-45.257s28.281-18.743 45.255-18.743h640c16.973 0 33.254 6.741 45.257 18.743s18.743 28.279 18.743 45.257v170.667c0 16.973-6.741 33.25-18.743 45.252s-28.284 18.748-45.257 18.748zM682.667 106.662h-426.667c-16.974 0-33.253 6.741-45.255 18.743s-18.745 28.279-18.745 45.257c0 16.973 6.743 33.25 18.745 45.252s28.281 18.748 45.255 18.748h426.667c16.973 0 33.254-6.746 45.257-18.748s18.743-28.279 18.743-45.252c0-16.977-6.741-33.254-18.743-45.257s-28.284-18.743-45.257-18.743z" />
<glyph unicode="&#xe926;" glyph-name="lock-key" d="M755.81 573.488v50.197c0 138.384-109.38 250.982-243.81 250.982s-243.808-112.597-243.808-250.982v-50.197c-53.861 0-97.525-44.946-97.525-100.396v-351.369c0.005-55.441 43.665-100.39 97.525-100.39h487.618c53.858 0 97.523 44.949 97.523 100.395v351.373c-0.004 55.445-43.665 100.387-97.523 100.387zM365.717 623.685c0 83.040 65.617 150.587 146.283 150.587s146.283-67.547 146.283-150.587v-50.197h-292.565v50.197zM560.759 272.316c0-27.725-21.833-50.197-48.764-50.197s-48.764 22.473-48.764 50.197v100.395c0 27.721 21.833 50.197 48.764 50.197s48.764-22.477 48.764-50.197v-100.395z" />
<glyph unicode="&#xe927;" glyph-name="logout" d="M919.014 491.861l-142.605 130.714c-29.555 27.118-70.997-17.673-41.135-44.791l109.999-99.33h-272.102c-40.222 0-40.222-60.941 0-60.941h270.579l-108.476-99.332c-30.165-27.729 11.883-71.603 41.135-44.791l142.605 130.718c26.202 24.068 26.202 63.983 0 88.055v-0.303zM664.277 600.333v152.349c0 50.275-41.135 91.409-91.413 91.409h-100.245c-15.236 25.9-43.273 35.345-68.561 28.337l-251.688-70.385c-39.612-10.969-67.036-47.838-67.036-89.581v-528.957c0-41.741 27.728-78.609 67.036-89.579l251.688-70.387c25.596-7.006 53.325 2.743 68.561 28.339h100.245c50.278 0 91.413 41.131 91.413 91.409v152.346c0 40.222-60.941 40.222-60.941 0v-152.346c0-16.759-13.713-30.473-30.473-30.473h-91.409v670.336h91.409c16.759 0 30.473-13.711 30.473-30.47v-152.349c0-40.22 60.941-40.22 60.941 0zM359.57 417.515c0-40.222-60.941-40.222-60.941 0v60.941c0 40.218 60.941 40.218 60.941 0v-60.941z" />
<glyph unicode="&#xe928;" glyph-name="menu" d="M85.333 724.66c0 35.718 29.388 64.674 65.641 64.674h722.050c36.254 0 65.643-28.955 65.643-64.674s-29.389-64.674-65.643-64.674h-722.050c-36.253 0-65.641 28.955-65.641 64.674zM85.333 448c0 35.716 29.388 64.674 65.641 64.674h339.692c36.254 0 65.643-28.958 65.643-64.674s-29.389-64.674-65.643-64.674h-339.692c-36.253 0-65.641 28.958-65.641 64.674zM85.333 171.341c0 35.716 29.388 64.674 65.641 64.674h722.050c36.254 0 65.643-28.958 65.643-64.674 0-35.721-29.389-64.674-65.643-64.674h-722.050c-36.253 0-65.641 28.954-65.641 64.674z" />
<glyph unicode="&#xe929;" glyph-name="mess" d="M512 854.833c236.314 0 426.667-174.318 426.667-386.976s-190.353-386.978-426.667-386.978c-55.488 0-108.512 9.647-157.093 27.11l-127.285-63.663c-9.883-4.919-21.671-4.011-30.679 2.462-8.97 6.43-13.615 17.344-12.106 28.297l17.702 126.413c-72.793 69.538-117.205 163.362-117.205 266.359 0 212.658 190.353 386.976 426.667 386.976zM328.871 341.961l102.6 79.817c12.698 9.882 30.123 11.11 44.053 3.136l83.708-47.829c18.099-10.355 41.118-4.919 52.706 12.463l110.976 166.42c3.017 4.604 2.539 10.637-1.152 14.685-3.729 4.048-9.762 5.001-14.566 2.342l-114.509-63.623c-12.979-7.223-28.932-6.549-41.276 1.668l-65.37 43.579c-8.849 5.913-19.686 8.017-30.127 5.835-10.398-2.184-19.524-8.455-25.28-17.384l-119.070-185.271c-3.135-4.885-2.302-11.311 1.984-15.241 4.249-3.891 10.758-4.169 15.322-0.597z" />
<glyph unicode="&#xe92a;" glyph-name="minus-fill" d="M832 832h-640c-16.974 0-33.253-6.743-45.255-18.745s-18.745-28.281-18.745-45.255v-640c0-16.973 6.743-33.254 18.745-45.257s28.281-18.743 45.255-18.743h640c16.973 0 33.254 6.741 45.257 18.743s18.743 28.284 18.743 45.257v640c0 16.974-6.741 33.253-18.743 45.255s-28.284 18.745-45.257 18.745zM736 416h-448c-8.487 0-16.626 3.371-22.627 9.374-6.001 5.999-9.373 14.14-9.373 22.626s3.372 16.627 9.373 22.626c6.001 6.003 14.141 9.374 22.627 9.374h448c8.486 0 16.627-3.371 22.626-9.374 6.003-5.999 9.374-14.14 9.374-22.626s-3.371-16.627-9.374-22.626c-5.999-6.003-14.14-9.374-22.626-9.374z" />
<glyph unicode="&#xe92b;" glyph-name="momo" d="M756.698 487.45c100.617 0 181.969 81.050 181.969 181.296s-81.353 181.296-181.969 181.296c-100.621 0-181.969-81.050-181.969-181.296s81.348-181.296 181.969-181.296zM756.698 745.956c42.816 0 77.495-34.553 77.495-77.211s-34.679-77.211-77.495-77.211c-42.816 0-77.5 34.553-77.5 77.211s34.684 77.211 77.5 77.211zM756.698 408.96c-100.621 0-181.969-81.050-181.969-181.299 0-100.245 81.348-181.295 181.969-181.295 100.617 0 181.969 81.050 181.969 181.295 0 100.25-81.353 181.299-181.969 181.299zM756.698 150.451c-42.816 0-77.5 34.551-77.5 77.21s34.684 77.214 77.5 77.214c42.816 0 77.495-34.556 77.495-77.214s-34.679-77.21-77.495-77.21zM385.906 408.96c-30.828 0-59.087-10.24-81.78-27.302-22.693 17.062-51.38 27.302-81.78 27.302-75.357 0-136.585-61.001-136.585-136.081v-226.94h104.472v228.22c0 17.062 13.701 30.716 30.828 30.716s30.828-13.653 30.828-30.716v-227.793h104.472v227.793c0 17.062 13.701 30.716 30.828 30.716s30.828-13.653 30.828-30.716v-227.793h104.043v226.94c0 74.654-60.8 135.654-136.155 135.654zM385.906 850.042c-30.828 0-59.087-10.238-81.78-27.301-22.693 17.063-51.38 27.301-81.78 27.301-75.785 0-137.012-61.001-137.012-136.079v-226.513h104.472v227.793c0 17.063 13.702 30.714 30.828 30.714s30.828-13.65 30.828-30.714v-227.793h104.472v227.793c0 17.063 13.701 30.714 30.828 30.714s30.828-13.65 30.828-30.714v-227.793h104.471v226.513c0 75.078-60.8 136.079-136.155 136.079z" />
<glyph unicode="&#xe92c;" glyph-name="news" d="M685.7 282.534l67.878 39.458c10.044 5.833 10.116 20.309 0.137 26.249l-261.060 155.388c-9.246 4.89-22.545 0.747-22.976-12.851 0-0.171-0.034-0.337-0.034-0.512l5.521-303.915c0.162-8.764 7.394-14.967 15.253-14.967 2.547 0 5.167 0.649 7.625 2.082l67.853 39.441 80.23-138.231c2.833-4.877 7.94-7.595 13.188-7.595 2.598 0 5.227 0.67 7.642 2.065l93.461 54.327c7.262 4.224 9.737 13.542 5.517 20.813l-80.235 138.249zM817.237 832h-611.478c-53.023 0-96.003-42.985-96.003-96.003v-149.217c0-53.018 42.979-96.003 96.003-96.003h215.845c0.039 16.614 6.415 32.218 18.055 44.078 11.866 12.074 28.352 19.008 45.239 19.008 11.345 0 22.532-3.089 32.346-8.931l90.974-54.156h209.028c53.022 0 96 42.979 96 96.003v149.217c0 53.018-42.978 96.003-96.009 96.003zM317.195 586.388c0-10.681-7.062-20.087-17.326-23.074-2.217-0.647-4.482-0.956-6.704-0.956-8.077-0.005-15.791 4.080-20.288 11.147l-50.537 79.52v-62.591c0-13.271-10.755-24.030-24.030-24.030-13.271 0-24.030 10.76-24.030 24.030v145.21c0 10.691 7.057 20.097 17.321 23.084 10.26 2.982 21.26-1.167 26.997-10.191l50.537-79.525v66.632c0 13.275 10.755 24.040 24.030 24.040 13.271 0 24.030-10.765 24.030-24.040v-149.257zM425.566 685.416c13.277 0 24.029-10.759 24.029-24.030s-10.752-24.030-24.029-24.030h-25.531v-26.938h37.554c13.274 0 24.038-10.755 24.038-24.030 0-13.271-10.765-24.030-24.038-24.030h-61.584c-13.27 0-24.030 10.759-24.030 24.030v149.257c0 13.275 10.76 24.040 24.030 24.040h61.584c13.274 0 24.038-10.765 24.038-24.040 0-13.265-10.765-24.030-24.038-24.030h-37.554v-26.193l25.531-0.005zM686.652 609.388c0-25.933-19.371-47.030-43.187-47.030h-32.841c-6.878 0-13.38 1.765-19.157 4.894-5.781-3.129-12.279-4.894-19.153-4.894h-32.849c-23.808 0-43.187 21.097-43.187 47.030v127.002c0 13.271 10.761 24.030 24.030 24.030 13.274 0 24.030-10.76 24.030-24.030v-125.972h23.095v60.384c0 13.271 10.761 24.030 24.030 24.030s24.034-10.76 24.034-24.030v-60.384h23.095v125.972c0 13.271 10.756 24.030 24.030 24.030 13.269 0 24.030-10.76 24.030-24.030v-127.002zM848.721 621.609c0-32.671-23.94-59.251-53.367-59.251h-49.788c-13.274 0-24.026 10.759-24.026 24.030 0 13.275 10.752 24.030 24.026 24.030h49.788c1.323 0 5.303 3.967 5.303 11.191v8.386c0 7.214-3.981 11.186-5.303 11.186h-28.015c-29.427 0-53.367 26.575-53.367 59.247 0 32.666 23.94 59.247 53.367 59.247h40.128c13.274 0 24.030-10.755 24.030-24.030 0-13.271-10.756-24.030-24.030-24.030h-40.128c-1.314 0-5.308-3.962-5.308-11.186 0-7.219 3.994-11.186 5.308-11.186h28.015c29.427 0 53.367-26.58 53.367-59.247v-8.386z" />
<glyph unicode="&#xe92d;" glyph-name="phone" d="M108.751 513.801c-15.045 40.728-25.665 82.34-23.010 126.609 1.77 27.447 12.39 50.467 32.745 69.945 21.24 20.364 42.48 42.498 63.72 62.861 27.435 27.447 62.834 27.447 90.269 0 16.815-16.822 34.515-34.53 51.33-51.351s33.63-32.759 49.559-49.581c29.205-29.217 29.205-63.747 0-92.964-20.355-21.249-41.594-41.612-62.834-61.977-5.31-5.312-6.195-9.737-3.54-16.823 14.16-33.643 33.63-62.861 56.64-91.191 45.135-55.778 97.35-105.361 158.415-144.316 13.274-7.966 27.435-14.165 41.596-21.248 7.078-3.541 11.503-2.658 17.698 3.541 20.356 21.248 41.596 42.496 62.835 63.748 27.435 27.443 62.835 27.443 90.27 0 33.63-33.647 68.143-67.29 101.773-101.82 28.322-28.331 28.322-63.748 0-92.079-19.469-19.477-39.825-38.071-57.523-58.436-26.551-29.214-59.294-38.955-97.348-37.184-54.869 2.658-106.202 21.248-154.876 45.154-108.854 53.124-202.664 126.609-280.543 219.571-58.41 68.173-106.199 143.433-137.174 227.541zM938.466 495.138c-20.203 199.446-178.389 358.244-377.502 379.295-24.038 2.541-45.116-15.933-45.116-40.115v-0.774c0-20.714 15.697-37.927 36.288-40.097 160.474-16.914 288.917-144.704 306.035-305.789 2.206-20.766 19.652-36.523 40.525-36.297 23.45 0.26 42.133 20.433 39.77 43.776zM515.849 681.476v-0.565c0-19.305 13.517-36.462 32.538-39.721 39.083-6.697 75.243-25.381 103.753-53.902s47.185-64.697 53.879-103.797c3.255-19.029 20.407-32.55 39.701-32.55h0.358c24.887 0 44.215 22.391 39.863 46.908-20.207 113.837-110.14 203.833-223.364 223.536-24.457 4.256-46.729-15.072-46.729-39.907z" />
<glyph unicode="&#xe92e;" glyph-name="piggy-bank" d="M876.651 521.847c-12.582 44.060-36.169 83.839-69.116 116.561l24.661 84.963c6.49 22.365-10.564 44.629-34.189 44.629h-1.374c-53.282 0-104.132-18.412-144.533-52.086-13.235 1.887-26.667 2.855-40.098 2.855h-200.002c-106.2 0-198.534-59.585-244.317-146.576-2.367-0.706-4.817-1.116-7.35-1.116-13.783 0-25 11.044-25 24.615s11.217 24.615 25 24.615v49.231c-41.35 0-75-33.132-75-73.846 0-36.48 27.017-66.856 62.367-72.778-6.967-23.795-10.7-48.939-10.7-74.914 0-102.204 58.35-195.183 150-241.246v-43.746c0-19.332 15.919-35.008 35.556-35.008h78.889c19.637 0 35.556 15.676 35.556 35.008v14.221h99.998v-14.221c0-19.332 15.919-35.008 35.558-35.008h78.886c19.639 0 35.558 15.676 35.558 35.008v24.414c73.417 20.446 135.181 70.349 170.014 137.502h46.097c19.635 0 35.554 15.671 35.554 35.008v126.908c0 19.332-15.919 35.008-35.554 35.008h-26.462zM536.998 328.533v-28.224c0-13.598-11.191-24.619-24.998-24.619s-24.998 11.021-24.998 24.619v28.322c-29.103 10.257-50.001 37.824-50.001 70.14h50.001c0-13.653 11.499-25.19 25.097-25.19 13.786 0 25.003 11.042 25.003 24.614s-11.217 24.614-25.003 24.614c-41.348 0-74.999 33.118-74.999 73.847 0 32.047 20.851 59.404 49.903 69.579v29.457c0 13.594 11.191 24.615 24.998 24.615s24.998-11.021 24.998-24.615v-29.358c29.103-10.060 50.001-37.233 50.001-69.105h-50.001c0 13.474-10.931 24.043-24.9 24.043-13.781 0-24.998-11.042-24.998-24.614s11.217-24.614 24.998-24.614c41.37 0 75.004-33.135 75.004-73.847 0-32.132-20.937-59.537-50.103-69.662zM786.999 497.229c0-13.594-11.191-24.614-24.998-24.614s-25.003 11.021-25.003 24.614c0 13.598 11.196 24.619 25.003 24.619s24.998-11.021 24.998-24.619z" />
<glyph unicode="&#xe92f;" glyph-name="play" d="M512 874.667c-235.279 0-426.667-191.407-426.667-426.667s191.388-426.667 426.667-426.667c235.277 0 426.667 191.407 426.667 426.667s-191.39 426.667-426.667 426.667zM681.617 433.050l-248.887-160c-2.914-1.89-6.285-2.829-9.618-2.829-2.917 0-5.868 0.73-8.507 2.172-5.73 3.123-9.271 9.097-9.271 15.607v320c0 6.51 3.542 12.483 9.271 15.608 5.625 3.090 12.672 2.9 18.125-0.66l248.887-159.998c5.073-3.264 8.162-8.909 8.162-14.95s-3.089-11.682-8.162-14.95z" />
<glyph unicode="&#xe930;" glyph-name="plus-fill" d="M832 832h-640c-16.974 0-33.253-6.743-45.255-18.745s-18.745-28.281-18.745-45.255v-640c0-16.973 6.743-33.254 18.745-45.257s28.281-18.743 45.255-18.743h640c16.973 0 33.254 6.741 45.257 18.743s18.743 28.284 18.743 45.257v640c0 16.974-6.741 33.253-18.743 45.255s-28.284 18.745-45.257 18.745zM736 416h-192v-192c0-8.486-3.371-16.627-9.374-22.626-5.999-6.003-14.14-9.374-22.626-9.374s-16.627 3.371-22.626 9.374c-6.003 5.999-9.374 14.14-9.374 22.626v192h-192c-8.487 0-16.626 3.371-22.627 9.374-6.001 5.999-9.373 14.14-9.373 22.626s3.372 16.627 9.373 22.626c6.001 6.003 14.141 9.374 22.627 9.374h192v192c0 8.487 3.371 16.626 9.374 22.627 5.999 6.001 14.14 9.373 22.626 9.373s16.627-3.372 22.626-9.373c6.003-6.001 9.374-14.141 9.374-22.627v-192h192c8.486 0 16.627-3.371 22.626-9.374 6.003-5.999 9.374-14.14 9.374-22.626s-3.371-16.627-9.374-22.626c-5.999-6.003-14.14-9.374-22.626-9.374z" />
<glyph unicode="&#xe931;" glyph-name="promo" d="M898.108 488.486c3.588-0.201 7.189 0.115 10.692 0.93 17.545 4.335 29.756 18.645 29.687 36.655-0.222 17.92-1.532 35.813-3.93 53.576-2.185 18.119-5.38 36.101-9.579 53.861-5.231 21.175-24.99 39.65-46.234 43.599-6.345 1.149-89.728 9.896-175.509 14.294 12.169 11.341 21.483 25.393 27.196 41.014s7.659 32.369 5.675 48.883c-1.98 16.514-7.829 32.327-17.075 46.154-9.242 13.827-21.619 25.277-36.122 33.419-14.507 8.142-30.724 12.746-47.343 13.438s-33.165-2.548-48.294-9.457c-15.13-6.908-28.416-17.289-38.775-30.3-10.364-13.010-17.506-28.283-20.855-44.575l-15.991-89.962-15.859 89.379-0.119 0.617c-3.324 16.326-10.458 31.636-20.821 44.681s-23.659 23.459-38.81 30.39c-15.153 6.931-31.727 10.185-48.374 9.495s-32.895-5.303-47.421-13.463c-14.526-8.16-26.918-19.637-36.167-33.495s-15.093-29.705-17.056-46.25c-1.962-16.545 0.012-33.32 5.762-48.957s15.114-29.695 27.328-41.027c-85.548-4.415-168.53-13.111-174.927-14.261-21.291-3.948-41-22.424-46.231-43.599-4.198-17.76-7.396-35.742-9.579-53.861-2.375-17.775-3.666-35.679-3.865-53.609 0-18.044 12.228-32.388 29.871-36.655 3.357-0.777 6.804-1.088 10.246-0.93 29.988 1.067 227.739 7.778 411.495 7.778 180.809-0.064 334.144-6.545 360.986-7.761zM631.249 827.228c14.485-0.006 28.454-5.381 39.206-15.086s17.523-23.052 19.008-37.46c1.481-14.408-2.428-28.855-10.978-40.547-8.546-11.693-21.129-19.801-35.307-22.758l-84.233-14.993 14.993 84.332c2.799 13.136 10.010 24.918 20.437 33.382s23.441 13.099 36.873 13.132zM392.049 827.228c13.425-0.022 26.437-4.641 36.87-13.089 10.436-8.448 17.66-20.215 20.471-33.341l14.997-84.332-84.25 14.993c-14.092 3.038-26.568 11.168-35.037 22.834s-12.337 26.046-10.861 40.386c1.475 14.34 8.19 27.632 18.857 37.328s24.537 15.116 38.953 15.221zM416.889 345.079c-3.507-0.038-6.968-0.811-10.157-2.27-3.189-1.463-6.034-3.58-8.352-6.212-5.17-5.632-8.026-13.009-7.997-20.655-0.25-8.93 1.982-15.945 6.664-21.312 2.355-2.53 5.216-4.535 8.398-5.892 3.182-1.353 6.612-2.018 10.069-1.958s6.863 0.845 9.996 2.308c3.132 1.459 5.923 3.567 8.188 6.178 4.898 5.598 7.398 12.762 7.582 21.457 0.166 8.329-2.048 15.228-6.665 20.591-2.15 2.581-4.873 4.625-7.949 5.973s-6.423 1.958-9.777 1.792zM608.026 191.211c-3.473 0.064-6.916-0.64-10.082-2.065-3.17-1.421-5.986-3.529-8.243-6.165-4.898-5.414-7.398-12.412-7.381-20.992 0-9.131 2.419-16.363 7.198-21.892 2.261-2.658 5.090-4.779 8.282-6.199 3.187-1.425 6.656-2.112 10.146-2.014 3.456-0.051 6.882 0.687 10.010 2.159 3.132 1.472 5.884 3.639 8.047 6.34 4.8 5.662 7.249 12.877 7.283 21.658 0.32 7.625-2.223 15.095-7.134 20.941-2.231 2.611-5.013 4.706-8.145 6.127s-6.541 2.138-9.98 2.103zM512 453.116c-184.54 0-358.651-4.996-358.651-4.996-2.868-0.060-5.613-1.169-7.712-3.127-2.099-1.954-3.404-4.612-3.666-7.471-3.403-38.477-4.71-77.111-3.915-115.733 1.333-70.788 7.997-122.615 14.81-160.567 11.845-62.822 68.572-117.252 130.412-126.878 37.535-6.165 159.167-13.461 228.722-12.83 69.555-0.631 191.185 6.665 228.723 12.83 61.841 9.626 118.566 64.055 130.411 126.878 6.814 37.952 13.478 89.779 14.81 160.567 0.798 38.622-0.512 77.257-3.913 115.733-0.265 2.859-1.57 5.517-3.669 7.471-2.099 1.958-4.843 3.068-7.71 3.127 0 0-174.114 4.996-358.652 4.996zM364.661 263.313c-13.661 14.059-20.225 31.253-19.525 51.746 0.7 20.489 8.53 37.666 23.19 52.378 14.661 14.707 31.471 22.605 50.412 23.189 18.941 0.585 35.103-6.229 48.479-20.625 13.38-14.396 20.092-32.085 19.793-52.796-0.299-21.402-7.437-39.283-21.406-53.645-6.537-6.775-14.37-12.169-23.031-15.863-8.657-3.691-17.973-5.606-27.388-5.628-9.415-0.026-18.739 1.843-27.418 5.491-8.679 3.652-16.536 9.007-23.106 15.753zM592.499 387.895c17.493 0 28.053-21.824 17.894-37.585-50.829-79.351-104.256-159.403-152.755-237.052-6.665-10.581-19.989-12.813-30.187-5.116-10.196 7.697-13.145 22.357-6.514 32.87 48.694 77.167 102.309 157.103 153.27 236.702 2.031 3.017 4.749 5.508 7.927 7.279 3.179 1.766 6.729 2.761 10.364 2.901zM657.472 108.395c-13.858-14.545-30.519-21.909-50.112-22.042-19.26 0-35.652 7.347-49.378 21.973-13.73 14.626-20.774 32.653-20.992 53.828s6.746 38.699 20.843 53.312c14.093 14.609 30.818 22.106 50.159 22.106 19.345 0 36.186-7.347 50.163-22.059 6.857-7.023 12.22-15.356 15.778-24.503 3.558-9.143 5.235-18.914 4.932-28.723-0.269-21.423-7.479-39.351-21.393-53.892z" />
<glyph unicode="&#xe932;" glyph-name="promotion" d="M85.333 573.050c0 82.869 108.252 189.346 193.939 189.346h465.453c85.687 0 193.941-106.477 193.941-189.346v-12.504c0-13.812-11.575-25.008-25.86-25.008-49.984 0-90.505-39.188-90.505-87.529 0-48.337 40.521-87.526 90.505-87.526 14.285 0 25.86-11.196 25.86-25.007v-12.506c0-82.867-108.254-189.346-193.941-189.346h-465.453c-85.687 0-193.939 106.479-193.939 189.346v12.506c0 13.811 11.577 25.007 25.859 25.007 49.984 0 90.505 39.189 90.505 87.526 0 48.341-40.521 87.529-90.505 87.529-14.281 0-25.859 11.196-25.859 25.008v12.504zM446.242 601.154c-25.567 24.728-67.025 24.728-92.593 0-25.571-24.729-25.571-64.822 0-89.551 25.569-24.73 67.027-24.73 92.593 0 25.574 24.729 25.574 64.821 0 89.551zM388.071 333.811c-10.099 9.766-10.099 25.6 0 35.366l205.431 198.674c10.099 9.767 26.47 9.767 36.57 0s10.099-25.6 0-35.368l-205.431-198.673c-10.099-9.766-26.472-9.766-36.57 0zM670.353 384.418c-25.57 24.725-67.025 24.725-92.595 0-25.57-24.73-25.57-64.823 0-89.553 25.57-24.725 67.025-24.725 92.595 0 25.57 24.73 25.57 64.823 0 89.553z" />
<glyph unicode="&#xe933;" glyph-name="qr-code" d="M334.222 874.667h-106.667c-78.435 0-142.222-63.787-142.222-142.222v-106.667c0-78.436 63.787-142.224 142.222-142.224h106.667c78.436 0 142.224 63.788 142.224 142.224v106.667c0 78.435-63.788 142.222-142.224 142.222zM334.222 661.333c0-19.627-15.929-35.555-35.555-35.555h-35.555c-19.627 0-35.556 15.929-35.556 35.555v35.555c0 19.627 15.929 35.556 35.556 35.556h35.555c19.627 0 35.555-15.929 35.555-35.556v-35.555zM796.446 874.667h-106.667c-78.438 0-142.225-63.787-142.225-142.222v-106.667c0-78.436 63.787-142.224 142.225-142.224h106.667c78.434 0 142.221 63.788 142.221 142.224v106.667c0 78.435-63.787 142.222-142.221 142.222zM796.446 661.333c0-19.627-15.932-35.555-35.558-35.555h-35.554c-19.627 0-35.554 15.929-35.554 35.555v35.555c0 19.627 15.927 35.556 35.554 35.556h35.554c19.627 0 35.558-15.929 35.558-35.556v-35.555zM334.222 412.446h-106.667c-78.435 0-142.222-63.787-142.222-142.225v-106.667c0-78.434 63.787-142.221 142.222-142.221h106.667c78.436 0 142.224 63.787 142.224 142.221v106.667c0 78.438-63.788 142.225-142.224 142.225zM334.222 199.113c0-19.627-15.929-35.558-35.555-35.558h-35.555c-19.627 0-35.556 15.932-35.556 35.558v35.554c0 19.627 15.929 35.554 35.556 35.554h35.555c19.627 0 35.555-15.927 35.555-35.554v-35.554zM636.446 270.221h-35.558c-29.44 0-53.333 23.893-53.333 53.333v35.558c0 29.44 23.893 53.333 53.333 53.333h35.558c29.44 0 53.333-23.893 53.333-53.333v-35.558c0-29.44-23.893-53.333-53.333-53.333zM743.113 163.554c-29.44 0-53.333 23.893-53.333 53.333s23.893 53.333 53.333 53.333c29.44 0 53.333-23.893 53.333-53.333s-23.893-53.333-53.333-53.333zM636.446 21.333h-35.558c-29.44 0-53.333 23.893-53.333 53.333v35.554c0 29.44 23.893 53.333 53.333 53.333h35.558c29.44 0 53.333-23.893 53.333-53.333v-35.554c0-29.44-23.893-53.333-53.333-53.333zM885.333 270.221h-35.554c-29.44 0-53.333 23.893-53.333 53.333v35.558c0 29.44 23.893 53.333 53.333 53.333h35.554c29.44 0 53.333-23.893 53.333-53.333v-35.558c0-29.44-23.893-53.333-53.333-53.333z" />
<glyph unicode="&#xe934;" glyph-name="qr-code-scan" d="M864 480h64v-128c0-8.486-3.371-16.627-9.374-22.626-5.999-6.003-14.14-9.374-22.626-9.374h-129.92v64h97.92v96zM896 704h-128v-64h96v-96h64v128c0 8.487-3.371 16.626-9.374 22.627-5.999 6.001-14.14 9.373-22.626 9.373zM608 640h96v64h-128c-8.486 0-16.627-3.372-22.626-9.373-6.003-6.001-9.374-14.141-9.374-22.627v-129.6h64v97.6zM544 352c0-8.486 3.371-16.627 9.374-22.626 5.999-6.003 14.14-9.374 22.626-9.374h131.52v64h-99.52v96h-64v-128zM768 224v-128c0-25.459-10.116-49.877-28.117-67.883-18.005-18.001-42.423-28.117-67.883-28.117h-448c-25.461 0-49.879 10.116-67.882 28.117-18.004 18.005-28.118 42.423-28.118 67.883v704c0 25.461 10.114 49.879 28.118 67.882s42.421 28.118 67.882 28.118h448c25.459 0 49.877-10.114 67.883-28.118 18.001-18.004 28.117-42.421 28.117-67.882v-32h-64v32c0 8.487-3.371 16.626-9.374 22.627-5.999 6.001-14.14 9.373-22.626 9.373h-448c-8.487 0-16.626-3.372-22.627-9.373s-9.373-14.141-9.373-22.627v-544h544c8.486 0 16.627-3.371 22.626-9.374 6.003-5.999 9.374-14.14 9.374-22.626zM512 160h-128v-64h128v64zM832 448v128c0 8.487-3.371 16.626-9.374 22.627-5.999 6.001-14.14 9.373-22.626 9.373h-128c-8.486 0-16.627-3.372-22.626-9.373-6.003-6.001-9.374-14.141-9.374-22.627v-128c0-8.486 3.371-16.627 9.374-22.626 5.999-6.003 14.14-9.374 22.626-9.374h128c8.486 0 16.627 3.371 22.626 9.374 6.003 5.999 9.374 14.14 9.374 22.626z" />
<glyph unicode="&#xe935;" glyph-name="scratch-card" d="M948.8 631.604c-8.401 14.6-22.4 25.4-38.801 29.8l-576.999 154.6c-16.4 4.4-33.8 2-48.6-6.4-14.6-8.4-25.4-22.4-29.8-38.8l-46.6-173.4h517.201c28.198 0 55.398-11.2 75.401-31.2 19.998-20 31.198-47.202 31.198-75.4v-278.801c1.6 0.802 3.401 1.6 5.001 2.603 14.601 8.397 25.399 22.4 29.798 38.797l88.401 329.602c4.599 16.4 2.202 33.8-6.199 48.6zM251.4 448.004h-40.4v-128.802h40.4v128.802zM441.199 448.004h-40.399v-128.802h40.399v128.802zM725.402 554.604h-597.402c-17 0-33.2-6.8-45.2-18.8-12-12.002-18.8-28.198-18.8-45.201v-341.397c0-17.003 6.8-33.203 18.8-45.201 12-12.002 28.2-18.799 45.2-18.799h597.402c16.998 0 33.199 6.797 45.197 18.799 12.002 11.998 18.803 28.198 18.803 45.201v341.397c0 17.003-6.801 33.199-18.803 45.201-11.998 12.2-28.198 18.8-45.197 18.8zM307.2 309.803c0 6.199 3 9.399 9.2 9.399h19.2c6.2 0 9.4-3.2 9.4-9.399v-18.999c0-6.199-3.2-9.399-9.4-9.399h-19.2c-6.2 0-9.2 3.2-9.2 9.399v18.999zM106.6 470.404c0 4.198 2 7.198 6 8.798l15.8 5.803c1.2 0.397 2.2 0.597 3.2 0.597h14.4c6.2 0 9.2-3.2 9.2-9.399v-185.6c0-6.199-3-9.399-9.2-9.399h-19.2c-6.2 0-9.4 3.2-9.4 9.399v148.399h-1.6c-6.2 0-9.2 3.004-9.2 9.203v22.199zM213.4 170.603h-85.4c-11.8 0-21.4 9.6-21.4 21.402 0 11.797 9.6 21.397 21.4 21.397h85.4c11.8 0 21.4-9.6 21.4-21.397-0.2-11.802-9.6-21.402-21.4-21.402zM211 281.404c-10 0-18.8 3.802-26.4 11.2s-11.4 16.201-11.4 26.202v129.199c0 10.001 3.8 18.799 11.4 26.398 7.6 7.603 16.4 11.401 26.6 11.401h39.8c9.8 0 18.6-3.797 26.4-11.401 7.8-7.599 11.6-16.397 11.6-26.398v-128.802c0-10.197-3.8-18.999-11.6-26.398-7.8-7.403-16.4-11.2-26.4-11.2h-40v-0.201zM384 170.603h-85.4c-11.8 0-21.4 9.6-21.4 21.402 0 11.797 9.6 21.397 21.4 21.397h85.4c11.8 0 21.4-9.6 21.4-21.397 0-11.802-9.6-21.402-21.4-21.402zM400.8 281.404c-10 0-18.8 3.802-26.4 11.2s-11.4 16.201-11.4 26.202v129.199c0 10.001 3.8 18.799 11.4 26.398 7.6 7.603 16.4 11.401 26.6 11.401h39.802c9.796 0 18.598-3.797 26.398-11.401 7.799-7.599 11.601-16.397 11.601-26.398v-128.802c0-10.197-3.802-18.999-11.601-26.398-7.799-7.403-16.401-11.2-26.398-11.2h-40.002v-0.201zM554.598 170.603h-85.397c-11.802 0-21.402 9.6-21.402 21.402 0 11.797 9.6 21.397 21.402 21.397h85.397c11.802 0 21.402-9.6 21.402-21.397 0-11.802-9.6-21.402-21.402-21.402zM612.8 319.202c0-10.197-3.802-18.999-11.601-26.398-7.599-7.403-16.397-11.2-26.398-11.2h-40c-10.001 0-18.799 3.797-26.402 11.2-7.599 7.398-11.401 16.201-11.401 26.197v129.003c0 10.001 3.802 18.799 11.401 26.398 7.603 7.603 16.401 11.401 26.603 11.401h39.799c9.801 0 18.598-3.797 26.398-11.401 7.799-7.599 11.601-16.397 11.601-26.398v-128.802zM725.402 170.603h-85.402c-11.802 0-21.402 9.6-21.402 21.402 0 11.797 9.6 21.397 21.402 21.397h85.402c11.797 0 21.397-9.6 21.397-21.397-0.201-11.802-9.6-21.402-21.397-21.402zM746.598 319.202c0-10.197-3.797-18.999-11.597-26.398-7.603-7.403-16.401-11.2-26.402-11.2h-40c-10.001 0-18.799 3.797-26.398 11.2-7.603 7.398-11.401 16.201-11.401 26.197v129.003c0 10.001 3.797 18.799 11.401 26.398 7.599 7.603 16.397 11.401 26.598 11.401h39.799c9.801 0 18.603-3.797 26.402-11.401 7.799-7.599 11.597-16.397 11.597-26.398v-128.802zM575.198 448.004h-40.397v-128.802h40.397v128.802zM708.8 448.004h-40.201v-128.802h40.201v128.802z" />
<glyph unicode="&#xe936;" glyph-name="seal-percent" d="M384.58 539.429c-6.028 0-11.92 1.787-16.932 5.136s-8.918 8.108-11.225 13.677c-2.307 5.569-2.91 11.696-1.734 17.608s4.079 11.342 8.341 15.604c4.262 4.262 9.693 7.165 15.604 8.34s12.040 0.573 17.609-1.734c5.569-2.307 10.329-6.213 13.677-11.225s5.136-10.904 5.136-16.932c0-8.083-3.211-15.834-8.926-21.55s-13.467-8.926-21.55-8.926zM628.39 356.57c-6.029 0-11.921-1.783-16.934-5.133-5.009-3.349-8.917-8.111-11.221-13.679-2.308-5.568-2.914-11.695-1.737-17.609s4.079-11.341 8.341-15.603c4.262-4.262 9.694-7.164 15.603-8.341 5.914-1.178 12.041-0.572 17.609 1.732 5.568 2.308 10.33 6.217 13.679 11.226 3.349 5.013 5.137 10.906 5.137 16.934 0 8.081-3.213 15.834-8.93 21.547-5.713 5.717-13.466 8.926-21.547 8.926zM933.15 448c0-39.77-28.608-69.598-53.867-95.923-14.362-15.010-29.218-30.477-34.816-44.075-5.184-12.459-5.487-33.105-5.794-53.107-0.572-37.18-1.178-79.313-30.473-108.608-29.299-29.295-71.433-29.905-108.612-30.477-19.998-0.307-40.649-0.61-53.103-5.79-13.602-5.602-29.069-20.459-44.079-34.82-26.321-25.259-56.149-53.867-95.923-53.867-39.77 0-69.598 28.608-95.923 53.867-15.009 14.362-30.476 29.218-44.076 34.82-12.457 5.18-33.105 5.483-53.105 5.79-37.181 0.572-79.314 1.182-108.609 30.477s-29.905 71.428-30.476 108.608c-0.305 20.002-0.609 40.649-5.79 53.107-5.6 13.598-20.457 29.065-34.819 44.075-25.257 26.325-53.867 56.154-53.867 95.923s28.609 69.598 53.867 95.924c14.362 15.010 29.219 30.476 34.819 44.076 5.181 12.457 5.486 33.105 5.79 53.105 0.572 37.181 1.181 79.314 30.476 108.61s71.429 29.905 108.609 30.476c20 0.305 40.648 0.61 53.105 5.791 13.6 5.6 29.067 20.457 44.076 34.819 26.325 25.257 56.153 53.867 95.923 53.867 39.774 0 69.602-28.61 95.923-53.867 15.010-14.362 30.477-29.219 44.079-34.819 12.454-5.181 33.105-5.486 53.103-5.791 37.18-0.571 79.313-1.181 108.612-30.476 29.295-29.295 29.901-71.429 30.473-108.61 0.307-20 0.61-40.648 5.794-53.105 5.598-13.6 20.454-29.067 34.816-44.076 25.259-26.326 53.867-56.154 53.867-95.924zM384.58 478.477c18.083 0 35.759 5.363 50.795 15.407 15.036 10.048 26.752 24.329 33.673 41.033 6.921 16.706 8.734 35.089 5.205 52.825s-12.237 34.027-25.024 46.813c-12.787 12.787-29.077 21.494-46.812 25.022s-36.119 1.717-52.825-5.203c-16.707-6.92-30.986-18.639-41.032-33.674s-15.408-32.712-15.408-50.795c0-24.248 9.632-47.503 26.779-64.65 17.146-17.143 40.401-26.778 64.65-26.778zM680.427 578.819c2.833 2.832 5.077 6.193 6.609 9.893 1.536 3.7 2.321 7.665 2.321 11.669s-0.785 7.97-2.321 11.669c-1.532 3.7-3.776 7.061-6.609 9.893s-6.191 5.077-9.89 6.61c-3.703 1.533-7.667 2.321-11.669 2.321-4.006 0-7.97-0.788-11.669-2.321-3.703-1.533-7.061-3.779-9.894-6.61l-304.762-304.763c-2.831-2.829-5.078-6.191-6.61-9.89s-2.321-7.667-2.321-11.669c0-4.006 0.788-7.97 2.321-11.669s3.779-7.061 6.61-9.894c5.719-5.717 13.475-8.93 21.562-8.93 4.004 0 7.97 0.789 11.669 2.321s7.061 3.776 9.893 6.609l304.761 304.762zM719.817 326.097c0 18.082-5.359 35.759-15.407 50.795s-24.324 26.752-41.033 33.673c-16.704 6.921-35.089 8.73-52.826 5.201-17.737-3.524-34.027-12.233-46.814-25.020-12.783-12.787-21.491-29.077-25.020-46.814s-1.719-36.117 5.201-52.826c6.921-16.704 18.641-30.985 33.677-41.033 15.036-10.044 32.713-15.407 50.795-15.407 24.247 0 47.501 9.634 64.649 26.778 17.148 17.148 26.778 40.401 26.778 64.653z" />
<glyph unicode="&#xe937;" glyph-name="setting" d="M616.563 847.162l29.73-86.207c24.734-10.598 48.077-24.091 69.594-40.205l89.596 17.384c10.398 2.023 21.116-1.667 28.105-9.646 36.322-41.674 64.23-89.978 82.133-142.288 3.452-10.042 1.271-21.155-5.679-29.172l-59.823-68.823c3.179-26.709 3.179-53.7 0-80.371l59.823-68.86c6.95-8.021 9.131-19.132 5.679-29.175-17.903-52.309-45.811-100.612-82.133-142.285-6.989-7.979-17.707-11.669-28.105-9.647l-89.557 17.382c-21.555-16.111-44.937-29.606-69.632-40.166l-29.73-86.242c-3.456-10.044-11.989-17.463-22.391-19.529-54.263-10.637-110.076-10.637-164.343 0-10.402 2.065-18.936 9.485-22.39 19.529l-29.733 86.204c-24.732 10.598-48.072 24.094-69.59 40.209l-89.596-17.391c-10.401-2.022-21.119 1.668-28.105 9.647-36.324 41.673-64.23 89.98-82.135 142.289-3.454 10.044-1.27 21.154 5.676 29.171l59.825 68.826c-3.176 26.709-3.176 53.696 0 80.371l-59.823 68.861c-6.946 8.017-9.13 19.131-5.678 29.172 17.904 52.311 45.811 100.614 82.133 142.29 6.987 7.979 17.705 11.669 28.105 9.644l89.557-17.384c21.556 16.114 44.937 29.609 69.629 40.166l29.732 86.246c3.455 10.041 11.988 17.463 22.388 19.527 54.268 10.637 110.080 10.637 164.348 0 10.402-2.064 18.935-9.485 22.391-19.527zM512 623.468c-96.861 0-175.502-78.626-175.502-175.472s78.639-175.467 175.502-175.467 175.501 78.626 175.501 175.471c0 96.842-78.639 175.468-175.501 175.468zM512 563.933c63.991 0 115.955-51.954 115.955-115.933s-51.964-115.934-115.955-115.934c-63.991 0-115.954 51.951-115.954 115.934 0 63.979 51.963 115.933 115.954 115.933z" />
<glyph unicode="&#xe938;" glyph-name="shield-check" d="M752.674 795.262l-229.12 77.504c-7.501 2.535-15.607 2.535-23.113 0l-229.119-77.504c-36.428-12.276-68.117-35.886-90.564-67.476s-34.509-69.552-34.474-108.494v-189.844c0-280.593 336.458-398.464 350.867-404.919 4.672-2.108 9.732-3.196 14.848-3.196s10.172 1.088 14.848 3.196c14.409 6.455 350.865 124.326 350.865 404.919v189.844c0.034 38.941-12.028 76.904-34.475 108.494s-54.135 55.2-90.564 67.476zM684.544 514.15l-156.233-158.498c-6.396-6.528-14.003-11.703-22.383-15.223-8.384-3.524-17.37-5.321-26.441-5.291h-1.207c-9.254 0.141-18.389 2.189-26.842 6.016-8.457 3.827-16.055 9.353-22.349 16.243l-84.332 89.041c-3.652 3.439-6.574 7.599-8.585 12.22-2.011 4.625-3.070 9.617-3.111 14.673-0.041 5.052 0.936 10.065 2.872 14.72 1.935 4.659 4.789 8.866 8.384 12.365s7.858 6.212 12.526 7.979c4.668 1.771 9.642 2.551 14.618 2.295 4.976-0.252 9.848-1.532 14.319-3.763s8.444-5.367 11.677-9.216l82.064-86.814 153.165 155.823c6.895 6.758 16.132 10.498 25.724 10.413 9.587-0.084 18.761-3.986 25.54-10.865s10.628-16.184 10.709-25.912c0.085-9.728-3.601-19.098-10.261-26.095l0.145-0.111z" />
<glyph unicode="&#xe939;" glyph-name="spinner-gap" d="M253.597 138.086c50.257 0 90.999 40.742 90.999 90.999s-40.742 90.999-90.999 90.999c-50.258 0-90.999-40.742-90.999-90.999s40.742-90.999 90.999-90.999zM839.083 218.79c43.618 0 78.98 35.362 78.98 78.98s-35.362 78.98-78.98 78.98c-43.618 0-78.98-35.362-78.98-78.98s35.362-78.98 78.98-78.98zM766.972 617.126c36.032 0 65.242 29.211 65.242 65.245s-29.21 65.245-65.242 65.245c-36.036 0-65.246-29.211-65.246-65.245s29.21-65.245 65.246-65.245zM181.904 360.213c53.335 0 96.571 42.18 96.571 94.217s-43.236 94.217-96.571 94.217c-53.335 0-96.571-42.181-96.571-94.217s43.236-94.217 96.571-94.217zM459.324 21.333c48.486 0 87.795 38.302 87.795 85.547 0 47.249-39.309 85.547-87.795 85.547-48.485 0-87.791-38.298-87.791-85.547 0-47.245 39.306-85.547 87.791-85.547zM684.949 58.816c46.063 0 83.401 36.356 83.401 81.207s-37.338 81.207-83.401 81.207c-46.063 0-83.401-36.356-83.401-81.207s37.338-81.207 83.401-81.207zM286.377 579.018c55.758 0 100.96 44.122 100.96 98.548s-45.201 98.548-100.96 98.548c-55.759 0-100.96-44.122-100.96-98.548s45.201-98.548 100.96-98.548zM864.043 429.743c41.216 0 74.624 32.789 74.624 73.237 0 40.449-33.408 73.239-74.624 73.239-41.212 0-74.62-32.79-74.62-73.239 0-40.448 33.408-73.237 74.62-73.237zM536.896 661.763c58.79 0 106.453 47.66 106.453 106.452s-47.663 106.452-106.453 106.452c-58.79 0-106.453-47.66-106.453-106.452s47.663-106.452 106.453-106.452z" />
<glyph unicode="&#xe93a;" glyph-name="support" d="M868.39 376.201c-11.887-44.838-34.807-86.451-67.2-120.947-59.217-60.911-140.011-101.44-230.251-108.497-9.387-0.751-18.893-1.114-28.463-1.114-16.823 0-30.477-13.508-30.477-30.157 0-16.644 13.653-30.153 30.477-30.153 11.213 0 22.306 0.422 33.28 1.297 105.66 8.29 200.29 55.663 269.559 127.040 0.124 0.090 0.213 0.209 0.337 0.333 59.763 63.505 93.013 147.093 93.013 233.877 0 2.47-0.243 4.279-0.64 5.517 0.427 3.558 0.64 7.177 0.64 10.825 0 28.378 0 62.089 0 90.464 0 49.966-40.93 90.463-91.43 90.463h-29.653c18.837-41.432 29.321-87.357 29.321-135.697 0-48.337-10.483-94.259-29.321-135.693h29.653c7.287 0 14.357 0.845 21.154 2.441zM451.046 147.601h-45.713c-16.823 0-30.476-13.508-30.476-30.153s13.653-30.157 30.476-30.157h45.713c16.823 0 30.477 13.513 30.477 30.157s-13.653 30.153-30.477 30.153zM512 810.667c168.017 0 304.427-134.971 304.427-301.214 0-166.238-136.41-301.21-304.427-301.21-168.015 0-304.427 134.972-304.427 301.21 0 166.243 136.411 301.214 304.427 301.214zM370.347 380.966c39.040-32.93 88.26-52.437 141.653-52.437s102.613 19.507 141.653 52.437c12.83 10.795 14.353 29.824 3.443 42.487-10.91 12.698-30.14 14.204-42.94 3.409-28.19-23.731-63.633-38.025-102.157-38.025s-73.967 14.293-102.156 38.025c-12.8 10.795-32.030 9.289-42.941-3.409-10.91-12.663-9.386-31.693 3.444-42.487zM206.415 645.149h-29.653c-50.499 0-91.429-40.497-91.429-90.463v-90.464c0-49.963 40.93-90.462 91.429-90.462h29.653c-18.834 41.434-29.318 87.356-29.318 135.693 0 48.339 10.484 94.264 29.318 135.697z" />
<glyph unicode="&#xe93b;" glyph-name="telegram" d="M104.151 453.133l196.279-66.662 465.991 284.884c6.754 4.131 13.675-5.043 7.851-10.406l-352.791-324.727-13.119-181.794c-0.999-13.833 15.66-21.53 25.545-11.81l108.625 106.816 198.575-150.323c21.402-16.205 52.395-4.783 58.167 21.436l138.27 627.807c7.889 35.814-27.204 66.036-61.453 52.92l-772.94-295.976c-24.247-9.289-23.586-43.819 0.999-52.164z" />
<glyph unicode="&#xe93c;" glyph-name="Trash" d="M691.648 724.959v74.854c0 19.853-7.569 38.892-21.047 52.93-13.474 14.038-31.753 21.924-50.812 21.924h-215.579c-19.058 0-37.336-7.887-50.813-21.924s-21.047-33.077-21.047-52.93v-74.854h-142.222c-20.67 0-37.427-16.756-37.427-37.427s16.756-37.427 37.427-37.427h34.433v-516.49c0-29.781 11.356-58.338 31.571-79.394s47.631-32.887 76.218-32.887h359.299c28.587 0 56.004 11.831 76.22 32.887 20.211 21.056 31.569 49.613 31.569 79.394v516.49h34.432c20.672 0 37.427 16.756 37.427 37.427s-16.755 37.427-37.427 37.427h-142.221zM476.070 238.409h-71.861v224.563h71.861v-224.563zM619.789 238.409h-71.859v224.563h71.859v-224.563zM619.789 724.959h-215.579v74.854h215.579v-74.854z" />
<glyph unicode="&#xe93d;" glyph-name="tutorial" d="M810.667 704v85.333c23.582 0 42.667 19.104 42.667 42.667s-19.085 42.667-42.667 42.667h-512c-70.583 0-128-57.417-128-128v-597.333c0-70.583 57.417-128 128-128h512c23.582 0 42.667 19.106 42.667 42.667v597.333c0 23.563-19.085 42.667-42.667 42.667zM298.667 789.333h426.667v-85.333h-426.667c-23.542 0-42.667 19.146-42.667 42.667s19.125 42.667 42.667 42.667zM554.667 192c0-23.561-19.085-42.667-42.667-42.667s-42.667 19.106-42.667 42.667c0 23.561 19.085 42.667 42.667 42.667s42.667-19.106 42.667-42.667zM384 448c0 70.583 57.417 128 128 128s128-57.417 128-128c0-72-44.749-103.561-71.458-122.415-4.749-3.358-10.957-7.731-14.165-10.628-2.5-21.184-20.501-37.623-42.377-37.623-23.582 0-42.667 19.106-42.667 42.667 0 40.021 30.084 61.248 50.001 75.311 23.872 16.836 35.332 26.108 35.332 52.689 0 23.522-19.123 42.667-42.667 42.667s-42.667-19.145-42.667-42.667c0-23.561-19.085-42.667-42.667-42.667s-42.667 19.106-42.667 42.667z" />
<glyph unicode="&#xe93e;" glyph-name="UploadSimple" d="M768 490.667c94.255 0 170.667-76.412 170.667-170.667s-76.412-170.667-170.667-170.667h-213.333v195.661l12.497-12.497c16.661-16.661 43.678-16.661 60.339 0s16.661 43.678 0 60.339l-85.333 85.333c-8.299 8.299-19.166 12.463-30.046 12.497h-0.252c-5.739-0.017-11.209-1.165-16.205-3.238-5.030-2.082-9.745-5.167-13.837-9.259l-85.334-85.333c-16.662-16.661-16.662-43.678 0-60.339s43.678-16.661 60.34 0l12.497 12.497v-195.661h-170.667c-117.821 0-213.333 95.514-213.333 213.333 0 108.062 80.348 197.361 184.562 211.41 34.595 100.433 129.923 172.59 242.104 172.59 141.385 0 256-114.615 256-256z" />
<glyph unicode="&#xe93f;" glyph-name="user" d="M512 448c45.005 0 89.003 12.51 126.421 35.955 37.423 23.441 66.59 56.757 83.814 95.739 17.22 38.982 21.726 81.876 12.949 123.258-8.781 41.382-30.455 79.395-62.281 109.23-31.821 29.835-72.371 50.153-116.51 58.385-44.143 8.232-89.894 4.007-131.476-12.14-41.58-16.147-77.12-43.491-102.124-78.573s-38.35-76.329-38.35-118.522c0.060-56.562 24.054-110.792 66.716-150.788s100.505-62.49 160.84-62.545zM512 376.887c-90.496-0.094-177.257-33.839-241.248-93.828s-99.985-141.329-100.085-226.172c0-9.429 3.996-18.47 11.108-25.139s16.759-10.415 26.818-10.415h606.814c10.061 0 19.708 3.746 26.82 10.415s11.106 15.71 11.106 25.139c-0.102 84.843-36.096 166.182-100.083 226.172-63.991 59.989-150.754 93.734-241.25 93.828z" />
<glyph unicode="&#xe940;" glyph-name="viettelpay" d="M401.158 852.641c-67.612 37.368-150.185-15.448-142.277-90.88l11.756-112.104 399.042 54.764-268.521 148.219zM901.653 407.637c42.534 38.409 47.522 98.534 19.524 142.373l-126.319-238.752 106.795 96.38zM324.855 132.284c9.69-92.271 123.039-134.093 192.79-71.189l0.354 0.282-206.966 202.914 13.821-132.006zM512.196 513.792c3.849 0 4.343 2.227 4.343 4.036v0.068c0 4.314-2.846 7.586-5.696 9.254-4.847 2.854-11.26 3.132-16.742 3.132h-0.431c-5.141 0.004-12.898 0.009-18.095-4.591-3.75-3.341-3.849-6.861-3.968-11.089l-0.021-0.811v-7.027c0 3.895 5.773 7.027 12.826 7.027h27.785zM723.58 513.792c3.849 0 4.348 2.227 4.348 4.036v0.068c0 4.314-2.85 7.586-5.7 9.254-4.915 2.854-11.26 3.132-16.742 3.132h-0.431c-5.137 0.004-12.898 0.009-18.095-4.591-3.75-3.341-3.849-6.861-3.964-11.089l-0.026-0.811v-7.027c0 3.895 5.773 7.027 12.826 7.027h27.785zM537.344 377.122c-4.915 0-8.051-2.364-9.404-5.914v-0.068c-1.425-3.618-1.498-7.309-0.785-10.995 1.212-6.541 4.988-8.909 13.751-8.909h35.622c5.628 0 7.697 1.532 7.697 5.777v20.109c-5.325 0-10.603 0.017-15.851 0.034-10.411 0.030-20.706 0.060-31.031-0.034zM437.888 351.795c11.755 0.486 18.522 5.359 21.158 13.986l-0.073 0.209c2.423 7.795 2.069 15.659 1.57 23.59-0.145 2.85-0.785 5.773-1.638 8.627-2.138 6.891-7.552 11.622-17.028 13.082-3.422 0.559-6.912 0.768-10.402 0.768-4.651 0.047-9.305 0.030-13.958 0.013-2.327-0.004-4.661-0.013-6.989-0.013-5.984 0-7.837-1.391-7.837-5.918v-54.413c0.356-0.209 0.499-0.282 0.641-0.282 3.395 0.021 6.79 0.013 10.183 0.004 8.143-0.026 16.273-0.047 24.372 0.346zM105.723 491.268l431.237-422.665c33.335-32.687 89.638-24.149 111.3 16.823l274.854 519.646c25.967 49.065-15.59 106.351-71.633 98.641l-706.093-96.984c-56.89-7.837-80.18-75.701-39.666-115.462zM426.816 561.168h7.979c3.209 0 5.773-2.505 5.773-5.637v-1.531c0-3.131-2.564-5.636-5.773-5.636h-3.989c-5.841 0-9.76-3.967-9.76-7.376v14.543c0 3.131 2.565 5.637 5.77 5.637zM772.954 557.979c3.204 0 5.769-2.505 5.769-5.637v-50.1l-0.004-1.062c-0.034-4.599-0.077-10.411 5.205-13.833 4.348-2.85 11.686-2.991 15.177-2.991h4.843v-6.123c0-3.132-2.564-5.636-5.769-5.636h-6.413c-11.827 0-18.24 1.532-23.723 5.077-5.7 3.618-8.836 8.7-8.836 17.468v57.2c0 3.131 2.564 5.637 5.773 5.637h7.979zM638.298 487.279c4.348-2.854 11.759-2.991 15.249-2.991l-0.145 0.137h4.847v-6.123c0-3.132-2.564-5.636-5.773-5.636h-6.409c-11.827 0-18.24 1.532-23.727 5.082-5.7 3.618-8.832 8.695-8.832 17.463v34.863h-40.755v-27.831l-0.004-1.062c-0.034-4.599-0.077-10.411 5.205-13.833 4.348-2.85 11.755-2.991 15.249-2.991h4.843v-6.123c0-3.132-2.564-5.636-5.773-5.636h-6.409c-11.827 0-18.24 1.532-23.727 5.077-5.7 3.618-8.832 8.7-8.832 17.468v34.863h-6.413c-3.209 0-5.773 2.505-5.773 5.636v6.124h12.186v10.577c0 3.131 2.564 5.637 5.769 5.637h7.979c3.209 0 5.773-2.505 5.773-5.637v-10.577h40.751v10.577c0 3.131 2.564 5.637 5.773 5.637h7.979c3.204 0 5.769-2.505 5.769-5.637v-10.577h24.725v-6.124c0-3.132-2.564-5.636-5.773-5.636h-18.953v-27.836l-0.004-1.058c-0.034-4.599-0.077-10.415 5.205-13.833zM533.926 484.288v-6.123h0.141c0-3.132-2.564-5.641-5.769-5.641h-43.388c-9.050 0-19.738 0.7-27.076 8.768-5.841 6.545-6.34 16.077-6.34 25.19 0 12.945 0.853 22.477 10.543 29.019s24.725 6.541 33.058 6.541c10.334 0 21.018-0.417 29.214-4.453 10.33-5.080 12.535-13.708 12.535-22.476 0-3.482-0.495-7.586-4.203-10.441-2.705-2.086-6.054-2.641-9.545-2.641h-51.439c0-2.995 0.499-7.445 1.139-9.536 2.492-7.445 10.688-8.209 17.882-8.209h43.247zM745.31 484.288v-6.123c0-3.132-2.564-5.641-5.773-5.641h-43.388c-9.045 0-19.733 0.7-27.072 8.768-5.841 6.545-6.34 16.077-6.34 25.19 0 12.945 0.853 22.477 10.543 29.019s24.721 6.541 33.058 6.541c10.402 0 21.090-0.417 29.282-4.453 10.33-5.080 12.54-13.708 12.54-22.476 0-3.482-0.499-7.586-4.203-10.441-2.709-2.086-6.059-2.641-9.549-2.641h-51.439c0-2.995 0.499-7.445 1.139-9.536 2.496-7.445 10.688-8.209 17.886-8.209h43.315zM426.559 541.765h7.98c3.204 0 5.773-2.505 5.773-5.636v-57.964c0-3.132-2.569-5.641-5.773-5.641h-7.98c-3.206 0-5.771 2.509-5.771 5.641v57.964c0 3.131 2.565 5.636 5.771 5.636zM394.428 534.598c2.066 4.175 6.269 7.168 11.328 7.168h12.254l-33.77-63.881c-2.992-5.845-8.692-6.123-13.536-6.123h-0.223c-3.552-0.004-10.178-0.009-13.456 6.123l-33.77 63.881h12.397c5.058 0 9.262-2.923 11.328-7.168l21.445-44.119c0.499-1.041 1.496-2.714 2.351-2.714s1.853 1.673 2.351 2.714l21.303 44.119zM610.3 406.212c0.427-2.159 0.572-4.386 0.572-6.541l-0.145 0.137c0.073-15.795 0.145-31.659 0-47.458 0-2.714-0.427-5.495-1.493-8.073-1.997-4.8-8.196-7.932-14.822-8.068h-67.75c-12.041-0.209-20.164 5.009-23.799 11.482-3.277 5.845-3.844 12.036-3.703 18.3 0.145 5.568 1.284 11.063 4.774 16.073 4.774 6.959 12.608 10.577 22.797 10.718 13.628 0.209 27.213 0.183 40.789 0.158 4.523-0.009 9.050-0.017 13.572-0.017h3.063c-0.030 1.045-0.004 2.091 0.026 3.132 0.102 3.806 0.205 7.552-2.59 10.991-3.063 3.759-7.979 4.873-13.393 4.873h-44.105c-8.759 0-15.885 6.959-15.885 15.518h67.968c7.906 0 15.386-1.045 21.871-4.663 7.411-4.105 10.974-9.882 12.254-16.559zM462.75 424.371c11.9-3.827 18.739-10.923 22.229-20.041l-0.068 0.073c3.631-9.463 3.989-19.136 3.345-28.881-0.354-6.123-1.493-12.177-4.058-18.022-5.487-12.454-17.242-19.273-34.483-21.013-2.709-0.35-5.414-0.35-8.124-0.35h-39.042v-7.791c0-11.972-9.903-21.713-22.228-21.713h-4.346v104.38c0 2.086 0.071 4.177 0.641 6.195 1.567 5.564 6.626 9.045 14.178 9.95 1.852 0.209 3.705 0.346 5.557 0.346h44.174c7.62-0.068 15.172-0.832 22.225-3.132zM643.785 427.644l38.899-70.421 30.993 52.745c6.485 10.995 18.381 17.745 31.347 17.745h6.34l-64.973-108.83c-4.634-7.727-13.111-12.527-22.302-12.527h-12.608l18.735 29.99-54.289 91.298h27.857z" />
<glyph unicode="&#xe941;" glyph-name="vip" d="M922.509 644.312c-12.51 9.426-29.197 11.239-43.575 4.725l-114.125-51.758c-8.772-3.976-14.387-12.507-14.387-21.885v-41.837c0-35.407-29.798-64.203-66.423-64.203-36.629 0-66.415 28.809-66.415 64.203 0 22.743 19.136 41.232 42.65 41.232 9.374 0 17.975 5.076 22.251 13.148s3.524 17.776-1.963 25.135l-134.49 180.735c-7.863 10.562-20.574 16.858-34.022 16.858-13.453 0-26.163-6.296-34.027-16.858l-134.514-180.723c-5.475-7.36-6.237-17.063-1.963-25.136s12.863-13.148 22.25-13.148c23.525 0 42.65-18.502 42.65-41.232 0-35.407-29.8-64.207-66.426-64.207s-66.413 28.813-66.413 64.207v41.836c0 9.377-5.6 17.897-14.388 21.885l-114.126 51.758c-14.362 6.513-31.063 4.701-43.563-4.725-12.512-9.426-18.4-24.64-15.375-39.686l94.651-470.968h-3.512c-13.813 0-25.001-10.816-25.001-24.166 0-13.355 11.188-24.171 25.001-24.171h669.484c13.811 0 24.998 10.816 24.998 24.171 0 13.35-11.187 24.166-24.998 24.166h-3.516l94.665 470.968c3.025 15.057-2.876 30.247-15.377 39.673zM445.082 339.588l-46.926-136.55c0 0-0.038-0.124-0.062-0.171-3.875-10.987-14.538-18.428-26.551-18.5-0.062 0-0.125 0-0.187 0-11.938 0-22.613 7.275-26.613 18.163-0.025 0.060-0.038 0.107-0.062 0.166l-49.138 136.845c-4.525 12.604 2.375 26.381 15.425 30.754 13.050 4.378 27.288-2.295 31.813-14.912l28.125-78.319 26.726 77.764c4.35 12.663 18.5 19.529 31.613 15.313 13.099-4.207 20.198-17.873 15.838-30.554zM537.007 622.101c0-13.353-11.187-24.169-24.998-24.169-13.815 0-25.003 10.816-25.003 24.169v19.311c0 13.353 11.187 24.169 25.003 24.169 13.811 0 24.998-10.816 24.998-24.169v-19.311zM547.793 347.456v-138.935c0-13.35-11.187-24.166-24.998-24.166s-25.003 10.816-25.003 24.166v138.935c0 13.355 11.191 24.171 25.003 24.171s24.998-10.816 24.998-24.171zM598.481 347.456c0 13.355 11.187 24.171 25.003 24.171h40.013c19.699 0 38.298-8.401 51.038-23.031 12.399-14.263 17.638-32.93 14.336-51.217-5.474-30.426-32.998-52.506-65.463-52.506h-14.925v-36.352c0-13.35-11.187-24.166-24.998-24.166-13.815 0-25.003 10.816-25.003 24.166v138.935zM679.607 305.668c0.99 5.461-1.276 9.438-3.349 11.819-3.213 3.699-7.863 5.815-12.762 5.815h-15.014v-30.080h14.925c7.966 0 14.925 5.355 16.201 12.446z" />
<glyph unicode="&#xe942;" glyph-name="wallet" d="M816.764 678.428h-486.668c-32.381 0-35.81 39.554-8.381 46.082h495.049c7.044 0 14.285-0.384 21.333-1.344-9.715 69.315-73.527 117.51-142.097 107.525-1.903-0.192-3.618-0.576-5.525-0.96l-481.713-82.756c-6.476-0.96-13.143-2.112-19.619-3.456h-0.381c-2.476-0.384-4.762-0.96-7.238-1.536-73.714-17.856-95.238-84.676-95.238-124.998v-46.466c-0.571-4.992-0.952-9.984-0.952-14.976v-368.658c0-67.776 54.667-122.884 121.905-122.884h609.526c67.238 0 121.903 55.108 121.903 122.884v368.658c0 67.779-54.665 122.886-121.903 122.886zM726.285 309.773c-33.715 0-60.949 27.456-60.949 61.44 0 33.988 27.234 61.444 60.949 61.444s60.954-27.456 60.954-61.444c0-33.984-27.238-61.44-60.954-61.44z" />
<glyph unicode="&#xe943;" glyph-name="close" d="M184.401 186.556c-18.277-18.278-18.274-47.906 0.006-66.185 18.28-18.274 47.914-18.274 66.19 0.004l261.407 261.436 261.431-261.41c18.278-18.274 47.915-18.274 66.189 0 18.278 18.274 18.278 47.91 0 66.185l-261.436 261.414 261.419 261.443c18.27 18.278 18.27 47.91-0.009 66.185s-47.915 18.273-66.189-0.006l-261.414-261.438-261.431 261.416c-18.278 18.276-47.912 18.276-66.19 0s-18.278-47.909 0-66.186l261.44-261.419-261.414-261.44z" />
<glyph unicode="&#xe944;" glyph-name="baccarat" d="M862.844 730.659h-329.856c-20.105-0.009-39.386-8-53.602-22.218-14.221-14.218-22.208-33.498-22.221-53.605-0.009-74.633 0.073-470.47 0-554.852 0.013-20.109 8-39.39 22.221-53.606 14.217-14.217 33.498-22.208 53.602-22.217h329.856c20.109 0.009 39.386 8 53.606 22.217 14.217 14.217 22.208 33.498 22.217 53.606v554.852c-0.009 20.107-8 39.387-22.217 53.605-14.221 14.217-33.502 22.209-53.606 22.218zM520.017 610.98c0.141 15.554 6.417 30.423 17.463 41.373 11.051 10.949 25.975 17.092 41.527 17.092 15.556 0 30.481-6.143 41.527-17.093 11.051-10.95 17.327-25.819 17.463-41.373-0.128-15.56-6.4-30.439-17.451-41.396-11.046-10.957-25.98-17.105-41.54-17.105s-30.49 6.148-41.54 17.105c-11.046 10.957-17.318 25.836-17.451 41.396zM713.361 208.546c-0.068-3.729-1.481-7.313-3.981-10.082-2.5-2.773-5.918-4.544-9.621-4.996s-7.445 0.452-10.539 2.543c-3.089 2.086-5.321 5.227-6.281 8.832-1.118 3.469-0.166 75.307-0.465 81.071-26.347 3.721-50.466 16.832-67.913 36.924-17.451 20.087-27.059 45.803-27.059 72.41-4.279 56.307 68.514 138.898 100.689 163.073 2.85 2.242 6.387 3.434 10.014 3.378s7.121-1.358 9.903-3.686c4.015-3.552 100.224-88.022 100.224-162.765 0-26.607-9.609-52.322-27.059-72.41s-41.566-33.199-67.913-36.924v-77.367zM816.823 85.005c-15.543 0.124-30.409 6.383-41.357 17.421-10.948 11.034-17.092 25.95-17.092 41.493s6.144 30.46 17.092 41.498c10.948 11.034 25.813 17.293 41.361 17.417 15.548-0.111 30.426-6.37 41.382-17.404 10.957-11.038 17.105-25.958 17.105-41.51s-6.148-30.473-17.105-41.51c-10.957-11.038-25.835-17.293-41.387-17.404zM597.385 632.136c-3.422 2.974-7.514 5.074-11.925 6.122s-9.015 1.010-13.406-0.109c-4.395-1.118-8.457-3.284-11.827-6.313-3.375-3.029-5.969-6.831-7.552-11.079s-2.116-8.818-1.549-13.317c0.563-4.499 2.21-8.794 4.8-12.517s6.042-6.764 10.061-8.862c4.019-2.098 8.486-3.191 13.022-3.186 5.679 0.093 11.196 1.894 15.829 5.17 4.638 3.276 8.179 7.873 10.163 13.192s2.321 11.113 0.96 16.625c-1.357 5.512-4.348 10.487-8.576 14.275zM816.823 171.947c-7.39-0.064-14.455-3.046-19.661-8.294-5.205-5.252-8.124-12.343-8.124-19.733 0-7.394 2.923-14.485 8.124-19.733 5.205-5.248 12.271-8.23 19.661-8.294 7.394 0.064 14.46 3.046 19.665 8.294 5.201 5.248 8.119 12.343 8.119 19.733s-2.918 14.485-8.124 19.733c-5.201 5.248-12.271 8.23-19.661 8.294zM697.762 525.581c-29.359-26.47-80.397-83.61-79.373-130.334-0.047-10.475 1.975-20.851 5.952-30.541s9.826-18.5 17.216-25.92c7.39-7.424 16.171-13.312 25.843-17.331 9.673-4.015 20.045-6.084 30.515-6.084 10.475 0 20.843 2.069 30.515 6.084 9.673 4.019 18.453 9.911 25.843 17.331 7.39 7.424 13.239 16.23 17.216 25.92s5.999 20.066 5.956 30.541c0 44.629-50.807 102.541-79.684 130.334zM532.988 761.545c5.030-0.233 28.992 0.169 33.822 0l-16.832 56.212c-5.807 19.236-18.987 35.393-36.668 44.942-17.677 9.548-38.417 11.712-57.685 6.017l-316.112-94.354c-19.267-5.758-35.459-18.932-45.016-36.625s-11.695-38.458-5.944-57.728l158.75-531.69c5.766-19.26 18.941-35.447 36.633-45.001 17.691-9.557 38.451-11.699 57.721-5.961l84.625 25.327c0.012 49.301-0.009 225.822 0 271.945-14.029-4.437-28.809-6.003-43.456-4.595s-28.86 5.751-41.788 12.779c-114.063 62.212-26.453 219.015-3.395 250.635 2.020 3.040 5.061 5.256 8.573 6.247s7.263 0.693 10.574-0.842c24.369-11.423 47.631-25.070 69.492-40.769v36.754c0.033 28.291 11.287 55.413 31.289 75.418 20.006 20.004 47.13 31.257 75.418 31.29zM234.793 616.385c-14.929-4.328-30.963-2.58-44.608 4.864s-23.795 19.98-28.236 34.875c-4.442 14.895-2.816 30.943 4.523 44.644s19.797 23.947 34.658 28.502c74.564 20.435 107.73-88.522 33.664-112.886zM356.017 624.878c-16.215-27.179-53.586-97.599-38.607-147.63 3.296-10.825 8.855-20.83 16.308-29.342 7.453-8.516 16.63-15.351 26.924-20.053s21.468-7.159 32.784-7.219c11.316-0.055 22.515 2.291 32.855 6.891v151.644c-21.759 17.651-45.309 32.971-70.264 45.71zM231.241 697.459c-6.522 3.415-14.126 4.127-21.168 1.981s-12.957-6.976-16.467-13.448c-3.509-6.472-4.331-14.064-2.288-21.137s6.788-13.057 13.208-16.66c6.522-3.415 14.125-4.127 21.168-1.982s12.957 6.976 16.467 13.448c3.509 6.472 4.331 14.064 2.288 21.137s-6.788 13.057-13.208 16.66z" />
<glyph unicode="&#xe945;" glyph-name="ban-ca" d="M857.37 630.146c-58.645 123.037-166.635 108.142-188.975 103.642-81.766 64.854-296.031 45.614-335.75 41.426l-28.548 75.093c-5.585 14.584-19.704 24.359-35.375 24.359h-24.204c-20.636 0-37.237-16.135-37.857-36.771-0.765-42.944 3.674-70.802-30.877-113.881-12.566-17.039-13.268-40.303-1.86-58.029 10.551-16.291 18.618-29.323 23.738-39.098 2.637-5.276 8.379-25.6 1.397-100.54-2.291-21.47 16.057-41.719 37.702-41.271 0 0 36.46 0 36.46 0 14.585 0 27.927 8.533 34.134 21.722l31.186 65.786c13.032-6.362 26.996-12.258 40.96-17.688 7.631 16.581 13.528 35.274 13.344 55.079-0.279 20.31 30.039 21.082 31.030 0.775 0.299-24.687-6.207-46.191-15.204-66.404 7.447-2.637 14.894-5.12 22.033-7.293 9.007 16.649 16.26 35.5 15.979 58.804-0.171 8.637 6.72 15.86 15.514 15.825 29.965-1.895 9.348-56.927 5.124-69.663-2.176-5.43-4.348-10.24-6.362-14.118 10.547-3.26 20.169-5.743 28.079-7.915 10.863-2.79 17.378-13.188 15.825-24.823-15.979-114.347 54.306-162.598 57.254-164.617 4.309-2.876 10.637-0.529 11.789 4.501 15.053 57.092 55.548 98.829 71.991 113.882 58.496-112.644 24.205-176.875-1.86-205.423-10.394-11.328-27.465-13.811-40.96-5.897l-98.522 57.408c-6.413 4.335-14.613-3.904-10.705-10.398 0 0 40.96-75.247 40.96-75.247 13.653-25.293 17.378-54.46 10.082-82.389l-24.977-95.881c-2.176-7.514 8.132-13.385 13.342-7.138 0 0 111.398 124.122 111.398 124.122 2.33 2.483 4.966 4.655 8.226 6.515 206.135 111.509 211.213 312.708 132.339 453.979 17.225 9.307 51.827 10.704 65.011 10.394 5.551 0.205 9.929 6.017 7.138 11.171zM247.931 606.719c0.335 21.010 31.63 21.008 31.961 0-0.334-21.012-31.63-21.008-31.961 0zM279.892 759.233c-0.334-21.011-31.63-21.007-31.961 0 0.369 20.791 31.596 20.789 31.961 0z" />
<glyph unicode="&#xe946;" glyph-name="bau-cua" d="M937.805 331.661c-5.248 15.424-21.658 53.82-63.334 76.134-37.739 20.348-74.82 16.738-99.759 9.843-1.971 10.176-4.924 20.019-8.533 29.538 22.315 7.219 50.21 21.658 67.273 52.506 24.282 43.316 15.095 100.416-19.691 139.796 21.658 32.488 18.048 80.4-12.139 116.171-20.676 24.612-49.225 38.065-76.463 39.051-9.519 0.326-16.41-8.532-13.781-17.722l23.953-77.117-71.868 37.082c-8.533 4.266-18.377-1.314-19.691-10.502-3.934-27.238 4.267-57.757 24.943-82.369 32.815-38.723 84.663-49.553 121.417-27.238 25.271-29.205 31.834-70.225 14.443-101.4-13.129-23.957-36.757-34.133-54.148-38.724-28.22 41.348-79.744 72.194-163.426 83.353v55.788c0 9.187-7.548 16.408-16.405 16.408-9.19 0-16.41-7.22-16.41-16.408v-52.507c-13.453 0.986-27.567 1.314-42.334 1.314s-28.548-0.329-42.001-1.314v52.507c0 9.187-7.223 16.408-16.41 16.408-9.19 0-16.41-7.22-16.41-16.408v-55.788c-83.681-11.159-135.203-41.676-163.424-83.353-17.392 4.591-41.020 14.767-54.474 38.724-17.065 31.174-10.501 72.195 14.768 101.4 36.754-22.315 88.602-11.485 121.418 27.238 20.675 24.612 28.879 55.131 24.941 82.369-1.312 9.187-11.485 14.768-19.689 10.502l-71.867-37.082 23.955 77.117c2.626 9.19-4.266 18.048-13.783 17.722-27.567-0.986-55.788-14.439-76.462-39.051-30.19-35.771-33.8-83.683-12.142-116.171-35.114-39.38-43.973-96.48-19.689-139.796 17.063-30.848 44.958-45.286 67.273-52.506-3.609-9.519-6.563-19.362-8.532-29.538-24.941 6.895-62.351 10.505-99.761-9.843-41.677-22.315-58.085-60.71-63.335-76.134-2.954-8.858 1.641-18.048 10.499-21.001 1.643-0.329 3.283-0.657 4.923-0.657 6.892 0 13.456 4.267 15.751 11.157 3.938 11.814 16.408 41.020 47.584 57.758 30.848 16.734 62.023 11.486 81.057 5.581-0.329-1.971-0.329-3.938-0.329-5.909v-3.61c0-10.172 0.983-20.019 2.297-29.534-23.3-4.267-51.193-14.767-73.836-39.71-32.161-34.782-35.113-76.791-34.785-92.868 0-9.186 7.218-16.41 16.408-16.41 9.187 0.329 16.408 7.548 16.408 16.738-0.329 12.471 1.969 44.301 25.924 70.225 17.72 19.034 39.38 26.91 57.428 29.862 5.578-17.062 14.439-32.815 26.252-47.253-22.972-8.205-49.879-23.957-68.585-53.82-24.941-40.363-20.346-81.711-17.065-97.792 1.641-7.876 8.532-13.124 16.080-13.124 0.986 0 2.297 0 3.283 0.329 8.859 1.638 14.766 10.5 12.797 19.358-2.298 12.143-5.907 43.648 12.799 73.839 18.705 29.862 49.224 40.691 68.258 44.958 42.004-31.505 106.981-51.196 202.803-51.196 95.497 0 160.474 19.691 202.475 51.196 19.034-4.267 49.553-15.095 68.258-44.958 18.709-30.519 15.1-61.696 12.8-73.839-1.967-8.858 3.938-17.719 12.796-19.358 0.986-0.329 1.971-0.329 3.285-0.329 7.548 0 14.438 5.248 16.077 13.124 3.281 15.753 7.876 57.429-17.391 97.792-18.705 29.862-45.286 45.615-68.258 53.82 11.814 14.438 20.348 30.191 26.253 47.253 18.048-2.953 39.71-10.829 57.429-29.862 23.953-26.253 26.253-57.754 25.924-70.225 0-9.19 7.219-16.41 16.081-16.738h0.329c8.858 0 16.405 7.223 16.405 16.41 0.329 16.077-2.624 58.086-34.782 92.868-22.972 24.943-50.539 35.443-73.839 39.71 1.314 9.515 2.3 19.362 2.3 29.534v3.61c0 1.971-0.329 3.938-0.329 5.909 18.705 5.905 50.206 11.153 81.054-5.581 31.177-16.738 43.648-45.943 47.586-57.758 2.295-6.891 8.529-11.157 15.42-11.157 1.971 0 3.61 0.329 5.252 0.657 8.533 2.953 13.457 12.143 10.5 21.001zM733.363 339.213c-9.519-40.367-37.414-69.901-83.354-87.949-1.971-0.657-3.938-0.986-5.909-0.986-6.562 0-12.796 3.938-15.095 10.172-3.61 8.533 0.657 18.048 9.19 21.333 35.767 14.11 56.444 35.439 63.006 64.644 1.971 8.862 10.829 14.443 19.691 12.471 8.862-1.967 14.438-10.829 12.471-19.686z" />
<glyph unicode="&#xe947;" glyph-name="blackjack" d="M883.669 816.906l-321.779 56.739c-36.194 6.382-70.707-17.785-77.090-53.977l-3.042-17.271c46.532-5.734 85.85-39.257 98.227-85.449l19.665-73.392c10.411 4.515 22.217 6.141 34.227 4.023 22.797-4.020 40.286-20.425 46.801-41.071 13.184 17.172 35.226 26.607 58.022 22.587 32.623-5.753 54.409-36.865 48.657-69.49-12.501-70.889-88.572-127.87-124.672-151.303l55.117-205.705c2.957-11.029 4.186-22.11 3.917-32.986l46.37-8.175c36.194-6.383 70.707 17.783 77.090 53.973l92.463 524.405c6.387 36.195-17.783 70.708-53.973 77.090zM531.78 704.029c-7.97 29.73-34.854 49.338-64.235 49.337-5.7 0-11.499-0.739-17.267-2.284l-315.609-84.567c-35.498-9.512-56.565-46-47.053-81.498l137.818-514.348c7.967-29.73 34.852-49.34 64.233-49.34 5.7 0 11.497 0.742 17.263 2.287l315.61 84.565c35.499 9.515 56.567 46.003 47.053 81.502l-137.813 514.346zM286.183 352.444c-5.352 4.706-7.35 12.169-5.070 18.923l48.26 142.895c4.037 11.955 18.94 15.949 28.413 7.616l113.245-99.627c5.35-4.706 7.347-12.169 5.069-18.918l-48.26-142.899c-4.037-11.955-18.94-15.949-28.413-7.612l-113.244 99.622z" />
</font>
</defs>
</svg>
